<?xml version="1.0" standalone="no"?>
<!DOCTYPE svg PUBLIC "-//W3C//DTD SVG 1.1//EN" "http://www.w3.org/Graphics/SVG/1.1/DTD/svg11.dtd" >
<svg xmlns="http://www.w3.org/2000/svg">
<metadata>Generated by IcoMoon</metadata>
<defs>
<font id="resrequest" horiz-adv-x="1024">
<font-face units-per-em="1024" ascent="960" descent="-64" />
<missing-glyph horiz-adv-x="1024" />
<glyph unicode="&#x20;" horiz-adv-x="512" d="" />
<glyph unicode="&#xe900;" glyph-name="payment-gateway-circle" d="M582.306 502.596h180.407c3.968 0 7.215 3.247 7.215 7.215s-3.247 7.215-7.215 7.215h-180.407c-3.968 0-7.215-3.247-7.215-7.215s3.247-7.215 7.215-7.215zM367.522 288.333c-0.247 0.811-0.132 1.186 0.627 1.63 9.677 5.636 14.46 15.983 12.198 27.187-2.223 11.034-14.221 23.113-31.091 18.654-9.122-2.411-15.151-8.576-17.536-17.702-2.381-9.109-0.162-17.301 6.558-24.030 1.813-1.818 4.023-3.238 6.187-4.949-0.96-3.187-1.975-6.558-2.991-9.929-3.435-11.405-6.882-22.805-10.287-34.219-0.269-0.9-0.465-1.907-0.363-2.825 0.363-3.14 3.042-5.466 6.259-5.47 12.514-0.021 25.033 0.034 37.547-0.038 3.878-0.021 7.364 3.985 6.054 8.213-4.471 14.464-8.768 28.988-13.163 43.477zM582.306 532.151h180.407c3.968 0 7.215 3.247 7.215 7.215s-3.247 7.215-7.215 7.215h-180.407c-3.968 0-7.215-3.247-7.215-7.215s3.247-7.215 7.215-7.215zM582.306 473.041h180.407c3.968 0 7.215 3.247 7.215 7.215s-3.247 7.215-7.215 7.215h-180.407c-3.968 0-7.215-3.247-7.215-7.215s3.247-7.215 7.215-7.215zM511.987 941.495c-272.542 0-493.487-220.954-493.487-493.5s220.945-493.491 493.491-493.491c272.55 0 493.513 220.945 493.513 493.491-0.004 272.546-220.966 493.5-493.517 493.5zM492.032 191.753c-3.537-2.321-7.501-3.401-11.716-3.588-0.499-0.021-0.994-0.017-1.493-0.017-81.958 0-163.921 0.030-245.879-0.034-12.292-0.009-20.642 8.256-23.292 15.936-0.862 2.496-1.058 5.218-1.54 7.842-0.068 0.371-0.017 0.764-0.017 1.148 0 49.084 0 98.167 0 147.251 0 9.617 4.314 16.789 12.407 21.76 3.469 2.129 7.334 3.038 11.383 3.136 2.603 0.060 5.21 0.021 7.817 0.026 0.371 0 0.747 0 1.25 0 0 0.7 0 1.195 0 1.69 0.004 16.555-0.128 33.109 0.047 49.66 0.299 27.994 9.882 52.459 28.493 73.365 10.658 11.972 22.972 21.811 37.474 28.783 10.645 5.116 21.845 8.32 33.566 9.775 9.894 1.229 19.797 1.28 29.692 0.141 18.505-2.138 35.43-8.503 50.577-19.366 16.589-11.9 29.845-26.735 38.946-45.116 5.239-10.586 8.653-21.76 9.984-33.493 0.674-5.961 1.033-11.989 1.092-17.988 0.149-15.326 0.051-30.652 0.051-45.982 0-0.452 0-0.9 0-1.468 2.675 0 5.231-0.009 7.787 0 3.639 0.013 7.211-0.469 10.496-2.086 9.092-4.476 14.093-11.712 14.541-21.939 0.013-0.346 0.017-0.691 0.017-1.033 0-48.969-0.004-97.937 0.004-146.91 0.004-9.297-3.972-16.427-11.686-21.491zM815.923 423.812c0-5.833-4.77-10.607-10.607-10.607h-328.324c-0.009 5.666-0.030 11.332-0.085 16.998-0.064 6.387-0.444 12.804-1.165 19.149-1.412 12.493-5.047 24.388-10.628 35.657-9.69 19.567-23.799 35.362-41.463 48.030-16.128 11.567-34.146 18.342-53.845 20.617-6.195 0.717-12.39 0.986-18.586 0.823v14.515h464.695v-145.182zM815.923 644.429h-464.695v38.635c0 5.833 4.77 10.607 10.607 10.607h443.486c5.833 0 10.607-4.77 10.607-10.607v-38.635zM420.403 447.151c-3.934 20.373-15.718 35.123-33.421 45.355-8.256 4.774-17.34 7.002-26.837 7.543-10.441 0.593-20.578-0.794-30.199-5.001-24.491-10.722-39.723-34.078-39.753-60.787-0.017-15.902-0.004-31.804-0.004-47.706 0-0.41 0-0.819 0-1.28 43.827 0 87.531 0 131.392 0 0 0.469 0 0.811 0 1.156 0 15.979 0.077 31.957-0.051 47.936-0.030 4.262-0.32 8.597-1.126 12.783zM413.444 413.205h-51.614c-5.833 0-10.607 4.77-10.607 10.607v71.245c0.371-0.017 0.742-0.034 1.118-0.055 10.116-0.576 19.785-2.948 28.574-8.030 18.842-10.893 27.345-24.439 31.535-46.127 0.862-4.454 1.246-15.305 0.994-27.639z" />
<glyph unicode="&#xe901;" horiz-adv-x="3681" d="M221.653 198.869c10.624-12.843 15.915-29.013 15.915-48.555s-5.419-35.883-16.299-49.024c-10.795-13.184-25.856-19.797-45.312-19.797-19.328 0-34.517 6.613-45.525 19.883-10.965 13.227-16.384 29.611-16.299 49.109s5.589 35.84 16.512 48.981c10.965 13.184 25.941 19.755 44.928 19.755 19.115-0.043 34.475-6.784 46.080-20.352zM176 94.805c7.552 0 14.208 1.621 19.883 4.821 11.264 6.229 18.901 16.384 22.827 30.464 1.963 6.571 2.944 13.312 2.944 20.224 0 14.549-4.011 27.435-12.075 38.699s-19.285 16.896-33.707 16.896c-7.509 0-14.123-1.621-19.883-4.821-11.093-6.229-18.731-16.213-22.827-29.952-4.011-13.739-4.011-27.477 0-41.301 4.053-13.909 11.648-23.936 22.827-30.208 5.76-3.2 12.416-4.821 20.011-4.821z" />
<glyph unicode="&#xe902;" horiz-adv-x="3681" d="M271.104 215.509h15.915v-22.571h0.512c3.029 7.893 8.448 14.251 16.171 18.987 7.723 4.779 16.213 7.211 25.429 7.296 25.6 0 40.789-9.728 45.653-29.227 1.493-6.229 2.219-13.227 2.219-20.992v-83.925h-15.915v81.323c0 26.325-11.008 39.509-33.067 39.509-12.245 0-22.101-4.181-29.483-12.587-7.467-8.405-11.307-19.115-11.477-32.213v-76.032h-15.915v130.432z" />
<glyph unicode="&#xe903;" horiz-adv-x="3681" d="M417.323 265.472h15.915v-180.395h-15.915v180.395z" />
<glyph unicode="&#xe904;" horiz-adv-x="3681" d="M474.112 265.472h15.915v-25.557h-15.915v25.557zM474.112 215.509h15.915v-130.432h-15.915v130.432z" />
<glyph unicode="&#xe905;" horiz-adv-x="3681" d="M530.347 215.509h15.915v-22.571h0.512c3.029 7.893 8.448 14.251 16.171 18.987 7.723 4.779 16.213 7.211 25.429 7.296 25.6 0 40.789-9.728 45.653-29.227 1.493-6.229 2.219-13.227 2.219-20.992v-83.925h-15.915v81.323c0 26.325-11.008 39.509-33.067 39.509-12.245 0-22.101-4.181-29.483-12.587-7.467-8.405-11.307-19.115-11.477-32.213v-76.032h-15.957v130.432z" />
<glyph unicode="&#xe906;" horiz-adv-x="3681" d="M685.568 146.005c0-21.589 7.808-37.035 23.467-46.421 5.419-3.2 11.947-4.821 19.541-4.821 11.605 0 20.736 3.029 27.307 9.088 6.613 6.059 11.179 14.123 13.739 24.107h15.915c-3.371-14.805-9.6-26.24-18.645-34.304s-21.803-12.117-38.315-12.203c-19.797 0-34.603 6.571-44.373 19.755s-14.635 29.269-14.549 48.384c0.085 19.157 4.736 35.157 13.909 48 10.368 14.379 25.344 21.589 45.013 21.589 19.584 0 34.56-7.595 44.843-22.827 9.131-13.483 13.355-30.293 12.587-50.347h-100.437zM685.568 159.36h84.523c-0.341 12.501-4.267 23.424-11.861 32.683-7.595 9.216-17.451 13.824-29.653 13.824s-22.101-4.523-29.653-13.568c-7.68-9.131-12.117-20.096-13.355-32.939z" />
<glyph unicode="&#xe907;" horiz-adv-x="3681" d="M898.048 265.472h15.915v-25.557h-15.915v25.557zM898.048 215.509h15.915v-130.432h-15.915v130.432z" />
<glyph unicode="&#xe908;" horiz-adv-x="3681" d="M954.325 215.509h15.915v-22.571h0.512c3.029 7.893 8.448 14.251 16.171 18.987 7.723 4.779 16.213 7.211 25.429 7.296 25.6 0 40.789-9.728 45.653-29.227 1.493-6.229 2.219-13.227 2.219-20.992v-83.925h-15.915v81.323c0 26.325-11.008 39.509-33.067 39.509-12.245 0-22.101-4.181-29.483-12.587-7.467-8.405-11.307-19.115-11.477-32.213v-76.032h-15.915v130.432z" />
<glyph unicode="&#xe909;" horiz-adv-x="3681" d="M1085.611 215.509h17.664l40.96-114.517h0.512l40.491 114.517h16.427l-48.811-130.432h-16.896l-50.347 130.432z" />
<glyph unicode="&#xe90a;" horiz-adv-x="3681" d="M1236.651 146.005c0-21.589 7.808-37.035 23.467-46.421 5.419-3.2 11.947-4.821 19.541-4.821 11.605 0 20.736 3.029 27.307 9.088 6.613 6.059 11.179 14.123 13.739 24.107h15.915c-3.371-14.805-9.6-26.24-18.645-34.304s-21.803-12.117-38.315-12.203c-19.797 0-34.603 6.571-44.373 19.755s-14.635 29.269-14.549 48.384c0.085 19.157 4.736 35.157 13.909 48 10.368 14.379 25.344 21.589 45.013 21.589 19.584 0 34.56-7.595 44.843-22.827 9.131-13.483 13.355-30.293 12.587-50.347h-100.437zM1236.651 159.36h84.523c-0.341 12.501-4.267 23.424-11.861 32.683-7.595 9.216-17.451 13.824-29.653 13.824s-22.101-4.523-29.653-13.568c-7.68-9.131-12.117-20.096-13.355-32.939z" />
<glyph unicode="&#xe90b;" horiz-adv-x="3681" d="M1368.32 215.509h15.915v-22.571h0.512c3.029 7.893 8.448 14.251 16.171 18.987 7.723 4.779 16.213 7.211 25.429 7.296 25.6 0 40.789-9.728 45.653-29.227 1.493-6.229 2.219-13.227 2.219-20.992v-83.925h-15.915v81.323c0 26.325-11.008 39.509-33.067 39.509-12.245 0-22.101-4.181-29.483-12.587-7.467-8.405-11.307-19.115-11.477-32.213v-76.032h-15.957v130.432z" />
<glyph unicode="&#xe90c;" horiz-adv-x="3681" d="M1523.669 202.155h-22.827v13.312h22.827v39.253h15.915v-39.253h26.539v-13.312h-26.539v-87.979c0-5.248 0.683-9.387 2.091-12.331 1.408-2.987 4.651-4.523 9.728-4.693 5.12-0.171 9.984 0 14.677 0.512v-13.312l-14.208-0.512c-10.624 0-18.005 2.048-22.229 6.187-4.181 4.096-6.229 11.733-6.059 22.869v89.259z" />
<glyph unicode="&#xe90d;" horiz-adv-x="3681" d="M1700.011 198.869c10.624-12.843 15.915-29.013 15.915-48.555s-5.419-35.883-16.299-49.024c-10.795-13.184-25.856-19.797-45.312-19.797-19.328 0-34.517 6.613-45.525 19.883-10.965 13.227-16.384 29.611-16.299 49.109s5.589 35.84 16.512 48.981c10.965 13.184 25.941 19.755 44.928 19.755 19.115-0.043 34.475-6.784 46.080-20.352zM1654.357 94.805c7.552 0 14.208 1.621 19.883 4.821 11.264 6.229 18.901 16.384 22.827 30.464 1.963 6.571 2.944 13.312 2.944 20.224 0 14.549-4.011 27.435-12.075 38.699s-19.285 16.896-33.707 16.896c-7.509 0-14.123-1.621-19.883-4.821-11.093-6.229-18.731-16.213-22.827-29.952-4.011-13.739-4.011-27.477 0-41.301 4.053-13.909 11.648-23.936 22.827-30.208 5.76-3.2 12.416-4.821 20.011-4.821z" />
<glyph unicode="&#xe90e;" horiz-adv-x="3681" d="M1749.717 215.509h14.677v-29.568h0.512c4.011 10.283 10.283 18.176 18.773 23.765s18.645 8.064 30.464 7.509v-14.677c-14.165 0.597-25.813-3.627-34.944-12.672-9.045-8.96-13.568-20.523-13.568-34.645v-70.144h-15.915v130.432z" />
<glyph unicode="&#xe90f;" horiz-adv-x="3681" d="M1849.685 50.859c7.723 0 13.653 4.053 17.749 12.203 1.152 2.56 2.432 5.291 3.84 8.235l5.547 14.635-52.096 129.536h16.896l42.965-110.848 40.235 110.848h15.915l-56.619-150.187c-4.864-11.349-8.875-18.432-12.075-21.205-3.2-2.901-6.443-4.779-9.728-5.675s-7.893-1.28-13.824-1.109c-5.931 0.171-9.515 0.512-10.752 1.024v13.909c5.12-0.896 9.131-1.365 11.947-1.365z" />
<glyph unicode="&#xe910;" horiz-adv-x="3681" d="M2101.888 81.493c-19.243 0-34.389 6.613-45.397 19.883-10.923 13.227-16.384 29.611-16.299 49.109s5.589 35.84 16.555 48.981c10.965 13.184 26.027 19.755 45.227 19.755 13.952 0 25.813-3.712 35.499-11.093 9.685-7.424 15.445-18.603 17.28-33.579h-15.915c-4.779 20.907-17.067 31.317-36.821 31.317-14.293 0-25.515-5.589-33.664-16.768-8.107-11.179-12.16-24.107-12.075-38.827 0.085-14.805 4.139-27.733 12.203-38.827s19.2-16.64 33.536-16.64c9.856 0 18.389 3.541 25.643 10.581s11.349 15.872 12.331 26.453h15.915c-2.219-15.872-8.064-28.245-17.536-37.12-9.557-8.917-21.675-13.312-36.48-13.227z" />
<glyph unicode="&#xe911;" horiz-adv-x="3681" d="M2187.776 265.472h15.915v-72.576h0.469c3.072 7.893 8.448 14.251 16.171 18.987 7.723 4.779 16.213 7.211 25.429 7.296 25.6 0 40.789-9.728 45.653-29.227 1.493-6.229 2.219-13.227 2.219-20.992v-83.925h-15.915v81.365c0 26.325-11.051 39.509-33.067 39.509-12.245 0-22.101-4.181-29.483-12.587-7.467-8.405-11.307-19.115-11.477-32.213v-76.032h-15.915v180.395z" />
<glyph unicode="&#xe912;" horiz-adv-x="3681" d="M2332.245 175.531c1.877 29.141 19.157 43.691 51.84 43.691s48.981-13.952 48.981-41.856v-69.419c0-6.443 3.115-9.6 9.387-9.515 1.877 0 3.541 0.341 4.949 0.981v-13.355c-3.797-0.64-7.467-0.981-10.965-0.981-10.027 0-15.829 4.48-17.408 13.525-0.384 2.773-0.597 5.803-0.597 9.088h-0.512c-6.4-9.344-12.971-16-19.627-20.011-6.571-4.011-15.872-6.059-27.904-6.144-20.139 0-33.621 6.912-40.363 20.779-2.219 4.736-3.328 11.093-3.328 18.987 0 7.936 2.005 14.421 6.059 19.541 4.011 5.12 9.387 9.003 16.043 11.733s14.123 4.608 22.4 5.632c8.277 1.024 15.445 1.92 21.461 2.56 6.016 0.683 10.325 1.237 12.885 1.749 7.552 1.579 11.392 6.741 11.477 15.573 0.171 15.232-6.741 24.107-20.736 26.667-4.096 0.725-8.533 1.109-13.312 1.109-10.027 0-18.261-2.389-24.661-7.168-6.443-4.779-9.771-12.501-10.112-23.211h-15.957zM2417.152 156.331h-0.512c-1.323-1.707-5.717-2.987-13.141-3.797-7.168-1.365-14.293-2.517-21.461-3.413-26.283-3.456-39.424-12.075-39.424-25.813 0.085-9.088 2.944-16.085 8.533-21.12 5.675-4.907 11.989-7.381 19.029-7.381 13.909 0 25.216 3.755 33.92 11.179 8.704 7.467 13.056 17.365 13.056 29.653v20.693z" />
<glyph unicode="&#xe913;" horiz-adv-x="3681" d="M2474.667 215.509h15.915v-22.571h0.469c3.072 7.893 8.448 14.251 16.171 18.987 7.723 4.779 16.213 7.211 25.429 7.296 25.6 0 40.789-9.728 45.653-29.227 1.493-6.229 2.219-13.227 2.219-20.992v-83.925h-15.915v81.323c0 26.325-11.051 39.509-33.067 39.509-12.245 0-22.101-4.181-29.483-12.587-7.467-8.405-11.307-19.115-11.477-32.213v-76.032h-15.915v130.432z" />
<glyph unicode="&#xe914;" horiz-adv-x="3681" d="M2620.373 215.509h15.915v-22.571h0.469c3.072 7.893 8.448 14.251 16.171 18.987 7.723 4.779 16.213 7.211 25.429 7.296 25.6 0 40.789-9.728 45.653-29.227 1.493-6.229 2.219-13.227 2.219-20.992v-83.925h-15.915v81.323c0 26.325-11.051 39.509-33.067 39.509-12.245 0-22.101-4.181-29.483-12.587-7.467-8.405-11.307-19.115-11.477-32.213v-76.032h-15.915v130.432z" />
<glyph unicode="&#xe915;" horiz-adv-x="3681" d="M2775.595 146.005c0-21.589 7.808-37.035 23.467-46.421 5.461-3.2 11.947-4.821 19.541-4.821 11.605 0 20.736 3.029 27.307 9.088s11.179 14.123 13.739 24.107h15.915c-3.371-14.805-9.6-26.24-18.645-34.304s-21.803-12.117-38.315-12.203c-19.797 0-34.603 6.571-44.373 19.755s-14.635 29.269-14.549 48.384c0.085 19.157 4.736 35.157 13.909 48 10.368 14.379 25.344 21.589 45.013 21.589 19.584 0 34.56-7.595 44.843-22.827 9.131-13.483 13.355-30.293 12.587-50.347h-100.437zM2775.595 159.36h84.523c-0.341 12.501-4.267 23.424-11.861 32.683-7.595 9.216-17.451 13.824-29.653 13.824s-22.101-4.523-29.653-13.568c-7.68-9.131-12.117-20.096-13.355-32.939z" />
<glyph unicode="&#xe916;" horiz-adv-x="3681" d="M2907.776 265.472h15.915v-180.395h-15.915v180.395z" />
<glyph unicode="&#xe917;" horiz-adv-x="3681" d="M2977.323 182.784c-0.384-9.344 1.963-14.848 7.040-16.597 1.323-0.469 2.517-0.896 3.627-1.237l37.717-8.32c16.299-2.389 27.563-9.429 33.792-21.12 2.219-4.181 3.328-9.429 3.328-15.829 0-6.528-1.621-12.288-4.821-17.237-8.789-13.739-24.832-20.651-48.085-20.821-14.891-0.085-27.093 3.499-36.608 10.752s-14.976 18.901-16.384 34.944h15.915c0.64-10.709 4.565-18.773 11.733-24.235s16.043-8.149 26.667-8.064c14.805 0 25.557 4.395 32.213 13.099 2.304 3.029 3.456 6.656 3.456 10.923 0 10.283-6.101 17.067-18.347 20.352-3.371 1.451-6.827 2.773-10.283 3.925l-20.736 4.565c-11.051 2.816-19.84 6.784-26.368 11.947-6.528 5.077-9.813 13.269-9.813 24.533s5.291 20.139 15.915 26.624c8.96 5.504 20.011 8.277 33.195 8.277 21.376 0 35.84-7.808 43.435-23.424 2.56-5.205 3.968-11.307 4.309-18.389h-15.915c-0.171 4.864-1.195 9.088-3.072 12.715-5.504 10.539-15.445 15.787-29.867 15.787s-24.149-4.139-29.269-12.459c-1.792-3.115-2.773-6.656-2.773-10.709z" />
<glyph unicode="&#xe918;" horiz-adv-x="3681" d="M117.419 645.205c2.091 8.491 4.181 16.939 6.229 25.429 4.907 20.309 14.933 38.016 28.587 53.461 17.365 19.712 37.205 36.821 62.72 45.013 14.080 4.523 28.885 8.149 43.563 8.96 25.728 1.451 51.541 0.384 77.355 0.384 2.731 0 5.419 0 8.576 0 0-25.173 0-49.579 0-75.307-2.517 0-5.163 0-7.808 0-21.248 0-42.496 0.427-63.701-0.128-16.555-0.427-32.683-3.328-46.507-13.568-20.267-14.976-31.915-34.432-31.872-60.203 0.085-49.536 0.043-99.115 0.043-148.651 0-2.987 0-5.931 0-9.984-26.197 0-51.669 0-77.099 0-0.085 58.24-0.085 116.395-0.085 174.592z" />
<glyph unicode="&#xe919;" horiz-adv-x="3681" d="M673.152 513.792c16.128 15.189 31.787 30.123 47.701 44.715 1.024 0.939 5.163 0.384 6.315-0.896 19.797-21.632 43.093-35.541 73.472-33.493 11.52 0.768 22.485 4.309 31.872 11.349 17.493 13.141 15.872 37.931-4.395 47.019-15.232 6.827-31.872 10.624-48.128 14.891-25.685 6.741-52.096 11.307-73.429 28.971-11.819 9.771-18.304 22.613-21.589 37.333-4.779 21.12-2.816 41.557 6.101 61.355 10.411 23.125 29.568 36.608 51.797 46.165 24.448 10.539 50.517 12.715 76.587 10.581 25.259-2.048 49.664-8.533 70.4-24.149 7.68-5.803 14.293-13.056 22.443-20.651-17.451-15.701-34.304-30.848-50.475-45.397-9.173 7.637-16.683 16.213-26.069 21.205-20.736 11.051-42.368 13.099-63.701 0.171-10.795-6.528-14.891-16.299-12.629-28.16 1.877-9.813 10.027-15.317 18.603-17.877 21.333-6.357 43.136-11.264 64.64-17.024 20.565-5.504 40.533-12.544 56.192-27.947 14.293-14.037 20.096-31.744 21.205-51.243 0.853-14.635-0.725-28.885-6.357-42.667-7.893-19.456-21.931-33.152-40.021-42.667-19.115-10.069-39.68-15.147-61.355-17.28-28.587-2.816-56.448-1.067-83.669 7.936-21.717 7.339-40.32 19.627-55.509 37.76z" />
<glyph unicode="&#xe91a;" horiz-adv-x="3681" d="M3089.024 535.552c0-18.133 0.171-37.547-0.256-56.917-0.043-1.963-3.413-5.077-5.675-5.547-13.312-2.731-26.709-6.315-40.192-6.784-16.768-0.597-33.963-0.213-50.389 2.901-34.304 6.528-52.224 26.027-57.643 60.544-2.176 13.909-3.115 28.16-3.243 42.24-0.427 42.24-0.128 84.48-0.128 126.72 0 2.987 0 5.973 0 9.813-20.693 0-40.789 0-61.44 0 0 21.419 0 42.027 0 63.787 20.053 0 40.363 0 61.269 0 0 29.355 0 57.557 0 86.357 25.216 0 49.835 0 75.179 0 0-28.544 0-56.747 0-85.931 27.605 0 54.485 0 82.005 0 0-21.504 0-42.069 0-63.531-26.923 0-53.845 0-81.493 0-0.171-3.797-0.427-6.741-0.427-9.685-0.043-40.96-0.043-81.963 0.043-122.923 0-5.035 0.341-10.112 1.067-15.104 3.413-22.699 18.304-34.219 43.307-32.299 12.331 1.024 24.576 4.053 38.016 6.357z" />
<glyph unicode="&#xe91b;" horiz-adv-x="3681" d="M587.52 569.301c18.56-14.037 36.565-27.648 55.083-41.643-22.315-28.672-50.944-47.531-86.101-55.723-43.349-10.112-85.589-5.717-125.013 15.317-42.325 22.571-67.84 58.325-76.971 105.515-6.016 31.147-3.669 61.653 7.552 91.307 12.8 33.707 35.157 59.392 66.56 76.971 31.019 17.323 64.725 24.064 99.755 21.077 47.232-4.053 84.224-25.301 106.752-68.736 11.691-22.528 17.963-46.251 19.328-71.467 0.768-14.293 1.451-28.587 2.219-43.819-76.501 0-151.936 0-228.224 0 0.085-12.672 4.096-23.168 10.069-32.853 13.952-22.528 34.432-34.219 60.885-36.523 27.605-2.389 51.541 5.248 71.936 23.765 5.547 4.949 10.368 10.709 16.171 16.811zM579.883 655.104c-1.195 56.704-48.555 76.928-94.336 68.48-35.243-6.528-58.197-41.643-56.149-68.48 49.963 0 99.925 0 150.485 0z" />
<glyph unicode="&#xe91c;" horiz-adv-x="3681" d="M2554.581 592.427c-76.331 0-151.637 0-227.883 0 1.92-18.517 8.533-34.133 20.907-47.061 27.221-28.459 76.373-32.811 111.701-9.216 10.368 6.912 19.285 16.043 29.483 24.661 16.811-12.715 34.304-25.899 52.309-39.509-9.344-12.629-20.523-22.656-32.725-31.573-69.077-50.347-192-35.669-238.592 52.779-44.032 83.584-11.307 209.664 114.859 230.699 33.749 5.632 66.688 3.072 97.365-13.184 37.973-20.139 57.856-53.675 67.456-94.293 5.675-23.808 5.973-48 5.12-73.301zM2326.912 649.003c51.157 0 101.888 0 152.576 0 0.725 35.499-22.485 66.987-69.035 70.357-44.032 3.2-77.397-23.808-83.541-70.357z" />
<glyph unicode="&#xe91d;" horiz-adv-x="3681" d="M1151.403 689.195c-5.803 8.277-14.464 15.189-26.027 20.779s-23.339 8.363-35.328 8.363c-13.653 0-25.643-2.773-35.968-8.363s-18.901-12.928-25.728-22.016c-6.827-9.088-11.861-19.328-15.189-30.677s-4.949-22.827-4.949-34.389c0-11.563 1.749-23.040 5.248-34.389 3.499-11.392 8.789-21.589 15.787-30.677 7.040-9.088 15.787-16.427 26.325-22.016s22.827-8.363 36.864-8.363c11.563 0 23.125 2.261 34.731 6.827 11.563 4.523 20.864 11.179 27.904 19.84l46.507-47.104c-12.416-13.227-28.203-23.467-47.403-30.677s-39.979-10.837-62.293-10.837c-21.888 0-42.667 3.499-62.293 10.539s-36.779 17.365-51.456 30.976c-14.677 13.653-26.24 30.165-34.731 49.579s-12.715 41.515-12.715 66.304c0 23.979 4.224 45.653 12.715 65.067 8.448 19.413 19.925 35.968 34.389 49.579 14.464 13.653 31.317 24.192 50.517 31.616s39.765 11.179 61.696 11.179c21.888 0 43.093-4.139 63.531-12.416s36.651-19.627 48.64-34.091l-50.773-44.629z" />
<glyph unicode="&#xe91e;" horiz-adv-x="3681" d="M2809.216 689.195c-5.803 8.277-14.464 15.189-26.027 20.779s-23.339 8.363-35.328 8.363c-13.653 0-25.643-2.773-35.968-8.363s-18.901-12.928-25.728-22.016c-6.827-9.088-11.904-19.328-15.189-30.677-3.328-11.349-4.949-22.827-4.949-34.389s1.749-23.040 5.248-34.389c3.499-11.392 8.789-21.589 15.787-30.677s15.787-16.427 26.325-22.016c10.539-5.589 22.827-8.363 36.864-8.363 11.563 0 23.125 2.261 34.731 6.827 11.563 4.523 20.864 11.179 27.904 19.84l46.507-47.104c-12.416-13.227-28.203-23.467-47.403-30.677s-39.979-10.837-62.293-10.837c-21.931 0-42.667 3.499-62.293 10.539s-36.779 17.365-51.456 30.976c-14.677 13.653-26.24 30.165-34.731 49.579s-12.715 41.515-12.715 66.304c0 23.979 4.224 45.653 12.715 65.067 8.448 19.413 19.925 35.968 34.389 49.579 14.464 13.653 31.317 24.192 50.517 31.616s39.765 11.179 61.696 11.179c21.888 0 43.093-4.139 63.531-12.416s36.651-19.627 48.64-34.091l-50.773-44.629z" />
<glyph unicode="&#xe91f;" horiz-adv-x="3681" d="M1230.72 624.043c0 23.125 4.139 44.16 12.501 63.019 8.32 18.859 19.584 34.987 33.792 48.384s31.061 23.723 50.517 31.061c19.499 7.296 40.192 10.965 62.080 10.965 21.931 0 42.624-3.669 62.080-10.965 19.499-7.296 36.309-17.664 50.517-31.061s25.472-29.525 33.792-48.384c8.32-18.859 12.501-39.893 12.501-63.019s-4.181-44.245-12.501-63.317c-8.32-19.072-19.584-35.413-33.792-49.024s-31.061-24.277-50.517-31.957c-19.499-7.723-40.192-11.563-62.080-11.563-21.931 0-42.624 3.883-62.080 11.563-19.499 7.723-36.309 18.347-50.517 31.957s-25.472 29.909-33.792 49.024c-8.32 19.072-12.501 40.192-12.501 63.317zM1305.003 624.043c0-11.349 1.707-22.741 5.163-34.091s8.619-21.504 15.531-30.421c6.912-8.917 15.616-16.256 26.197-21.931 10.539-5.675 23.125-8.533 37.76-8.533s27.179 2.816 37.76 8.533c10.539 5.675 19.285 12.971 26.197 21.931 6.912 8.917 12.075 19.072 15.531 30.421s5.163 22.741 5.163 34.091c0 11.349-1.749 22.613-5.163 33.792-3.456 11.136-8.619 21.205-15.531 30.123s-15.616 16.128-26.197 21.632c-10.539 5.461-23.125 8.235-37.76 8.235s-27.179-2.731-37.76-8.235c-10.539-5.461-19.285-12.672-26.197-21.632-6.912-8.917-12.075-18.987-15.531-30.123-3.413-11.179-5.163-22.443-5.163-33.792z" />
<glyph unicode="&#xe920;" horiz-adv-x="3681" d="M1617.707 768.853h68.181v-47.232h1.195c6.357 14.72 17.451 27.691 33.195 38.955s34.389 16.853 55.893 16.853c18.731 0 34.773-3.371 48.128-10.112s24.32-15.659 32.896-26.667c8.576-11.051 14.848-23.723 18.816-38.059s5.973-29.056 5.973-44.16v-184.064h-71.765v163.2c0 8.576-0.597 17.579-1.792 27.008-1.195 9.387-3.797 17.877-7.765 25.472-4.011 7.552-9.472 13.824-16.427 18.731-6.997 4.907-16.256 7.381-27.819 7.381s-21.547-2.347-29.909-7.040c-8.363-4.693-15.232-10.752-20.651-18.091-5.376-7.381-9.472-15.872-12.245-25.472s-4.181-19.328-4.181-29.141v-161.963h-71.765v294.4z" />
<glyph unicode="&#xe921;" horiz-adv-x="3681" d="M1944.491 768.853h68.181v-47.232h1.195c6.357 14.72 17.451 27.691 33.195 38.955s34.389 16.853 55.893 16.853c18.731 0 34.773-3.371 48.128-10.112s24.32-15.659 32.896-26.667c8.576-11.051 14.848-23.723 18.816-38.059s5.973-29.056 5.973-44.16v-184.064h-71.765v163.2c0 8.576-0.597 17.579-1.792 27.008-1.195 9.387-3.797 17.877-7.765 25.472-4.011 7.552-9.472 13.824-16.427 18.731-6.997 4.907-16.256 7.381-27.819 7.381s-21.547-2.347-29.909-7.040c-8.363-4.693-15.232-10.752-20.651-18.091-5.376-7.381-9.472-15.872-12.245-25.472s-4.181-19.328-4.181-29.141v-161.963h-71.765v294.4z" />
<glyph unicode="&#xe922;" horiz-adv-x="3681" d="M3375.019 468.352c-105.685 0-191.317-85.675-191.317-191.317s85.675-191.317 191.317-191.317c105.685 0 191.317 85.675 191.317 191.317s-85.632 191.317-191.317 191.317zM3502.549 322.347l-40.235-34.475 22.699-26.496-36.267-31.104c-28.587-24.491-69.675-25.344-99.2-4.523l-57.899-49.621c-6.443-5.504-16.213-4.779-21.717 1.664l-10.837 12.629c-5.504 6.443-4.779 16.213 1.664 21.717l57.899 49.621c-16.043 32.341-8.917 72.832 19.669 97.323l36.267 31.104 22.699-26.496 40.363 34.603c4.267 3.669 10.795 3.157 14.464-1.109l3.157-3.669c3.669-4.267 3.157-10.795-1.109-14.464l-40.363-34.603 32-37.333 40.235 34.475c4.352 3.755 11.008 3.243 14.72-1.152l2.901-3.371c3.755-4.352 3.243-10.965-1.109-14.72z" />
<glyph unicode="&#xe923;" glyph-name="play-button" horiz-adv-x="2543" d="M2041.131 924.203h-1534.251c-253.44 0-460.8-207.36-460.8-460.8v-30.507c0-253.44 207.36-460.8 460.8-460.8h1534.251c253.44 0 460.8 207.36 460.8 460.8v30.464c0 253.44-207.36 460.843-460.8 460.843zM2480.597 446.421c0-250.069-204.587-454.656-454.656-454.656h-1507.584c-250.069 0-454.656 204.587-454.656 454.656v0c0 250.069 204.587 454.656 454.656 454.656h1507.584c250.027 0 454.656-204.587 454.656-454.656v0zM516.949 923.307c-262.741 0-475.733-212.992-475.733-475.733s212.992-475.733 475.733-475.733c262.741 0 475.733 212.992 475.733 475.733s-212.992 475.733-475.733 475.733zM490.24 578.859c-41.856-33.323-76.501-73.003-93.397-124.629-8.277-25.301-15.147-52.267-15.872-78.635-2.091-75.008-0.725-150.101-0.725-225.152 0-4.224 0-8.448 0-14.080-51.84 22.272-87.936 57.728-108.629 108.629-8.832 21.675-12.288 44.288-12.075 67.755 0.427 45.269-0.683 90.539 0.299 135.808 1.536 70.059 25.173 131.925 70.187 186.112 28.373 34.091 61.739 61.696 100.565 82.219 29.781 15.701 61.867 26.539 95.787 28.885 36.181 2.517 72.491 4.992 108.715 4.608 58.923-0.597 108.032-23.552 144.299-71.040 10.283-13.44 19.285-27.861 30.635-44.416-12.203 0-20.053 0-27.904 0-44.459 0-88.96 0.64-133.419-0.171-58.837-1.109-112.213-19.072-158.464-55.893zM743.211 407.723c-31.872-23.552-68.309-33.237-107.989-34.432 0-22.229 0.555-42.411-0.085-62.592-2.56-79.957-42.197-135.637-112.811-170.752-0.981-0.469-2.261-0.341-5.291-0.725 0 9.088 0 17.365 0 25.685 0 63.915 0.128 127.872-0.043 191.787-0.085 38.101 11.307 72.235 38.187 99.285 20.907 21.035 45.909 38.485 76.672 39.296 59.349 1.536 118.784 0.427 178.944 0.427-13.269-35.285-36.139-64.725-67.584-87.979zM1249.28 552.661c25.429 0 44.715-6.528 57.771-19.627 13.056-13.056 19.627-31.403 19.627-54.955s-6.528-41.941-19.627-55.125c-13.056-13.184-32.341-19.669-57.771-19.456h-77.013v-103.125h-33.579v252.288h110.592zM1237.973 431.787c19.072-0.256 33.024 3.669 41.856 11.648 8.832 8.021 13.269 19.541 13.269 34.645 0 15.061-4.437 26.539-13.269 34.432s-22.784 11.819-41.856 11.819h-65.707v-92.587h65.707zM1401.216 552.661v-224.043h133.547v-28.288h-167.125v252.331h33.579zM1669.76 552.661l98.603-252.288h-37.12l-27.563 75.947h-106.709l-28.288-75.989h-34.261l98.219 252.288h37.12zM1693.099 404.608l-42.069 117.675h-0.725l-42.752-117.675h85.547zM1871.189 300.373h-33.579v103.168l-97.536 149.12h39.936l75.605-120.149 73.856 120.149h38.144l-96.469-149.12v-103.168zM2043.435 294.485l231.168 128.64-231.168 128.597z" />
<glyph unicode="&#xe924;" glyph-name="public" d="M317.568 536.192c-4.907-5.675-2.731-11.52-2.773-16.811-0.128-106.325-0.085-212.651-0.085-318.976 0-18.901-4.267-23.467-22.059-23.723-19.2-0.256-25.728 5.717-25.813 24.661-0.171 53.717-0.043 107.477-0.299 161.195-0.043 4.864 3.456 12.203-4.992 13.995-11.221 2.389-11.392-5.035-11.349-13.141 0.128-53.717 0.085-107.477 0.085-161.195 0-20.48-4.565-25.728-22.059-25.643-18.389 0.085-25.941 7.893-25.899 27.221 0.171 101.248 0.427 202.496 0.683 303.701 0 2.261 0 4.523 0.085 6.784 1.109 28.16-3.584 31.36-29.44 18.133-28.928-14.763-43.435-40.107-49.536-71.040-1.152-5.803 0.213-8.917 7.168-10.368 12.416-2.56 16.981-11.648 16.469-23.979-0.427-10.155 0.469-20.395-0.213-30.549-0.939-13.824-1.536-25.515 18.475-24.235 7.595 0.469 12.288-6.784 12.288-15.531-0.128-48.085-0.085-96.128-0.043-144.213 0-8.32-4.352-13.781-11.264-17.493-3.712-1.963-7.509-2.133-9.856-7.509-4.139-9.472-11.733-11.435-16.384-0.171-2.773 6.656-7.040 6.144-11.989 6.187-14.72 0.043-29.397 0.085-44.117 0-6.955-0.043-14.805 2.133-16.725-8.875-0.64-3.755-7.083-6.613-9.557-2.944-9.173 13.611-28.117 18.859-26.496 42.155 2.859 41.643 0.981 83.669 0.213 125.483-0.299 15.872 4.053 25.557 21.717 24.149 7.936-0.64 9.387 3.499 9.173 10.283-0.384 11.307 0.171 22.613-0.171 33.92-0.384 13.867-1.067 27.392 15.019 34.304 5.376 2.304 4.267 8.789 4.821 13.653 8.235 76.032 72.192 135.595 149.077 138.795 9.045 0.384 18.133-0.085 27.136 0.555 53.163 3.712 87.723-23.851 112-67.413 14.976-26.88 24.533-55.808 25.387-87.040 0.341-13.397 0.299-28.928-16.213-30.976-14.933-1.835-19.797 11.904-23.083 24.576-6.955 26.837-15.147 53.248-28.587 77.696-2.816 5.205-4.907 11.093-10.795 14.379zM137.429 405.675c0 6.741 0.213 13.483-0.043 20.224-0.555 15.36-6.528 18.901-20.011 11.435-7.765-4.309-15.317-6.272-24.064-3.285-20.309 6.869-20.352 6.741-20.352-15.573 0-3.925-0.043-7.851 0-11.819 0.512-38.656-4.907-32.768 32.896-33.109 31.573-0.299 31.573-0.085 31.573 32.128zM861.141 269.44c1.579-25.429 2.347-50.859 0.512-76.331-0.939-12.715-6.784-16.683-18.219-16.683-11.691 0-17.237 4.309-17.109 17.152 0.427 44.672-0.555 89.387 0.043 134.059 0.171 12.885-3.755 16.299-16.384 16.043-33.835-0.683-36.608 2.987-29.525 36.864 10.069 48.171 25.259 94.891 41.045 141.44 1.451 4.224 7.808 11.093 0.299 13.568-7.296 2.432-7.68-6.613-9.387-11.435-11.008-31.445-22.144-62.848-32.256-94.592-3.925-12.373-10.197-19.371-23.211-14.976-11.563 3.925-11.819 12.971-8.747 23.595 8.32 28.715 13.696 58.283 24.107 86.4 3.925 10.581 8.619 20.864 13.056 31.232 11.947 28.117 33.152 41.728 63.787 41.173 15.275-0.299 30.549-0.043 45.824 0.384 27.52 0.768 46.080-11.733 57.216-36.736 13.397-30.080 20.565-62.123 30.293-93.355 2.859-9.173 4.651-18.688 8.021-27.648 4.267-11.349 1.237-18.176-10.027-22.571-12.245-4.779-17.664 0.811-21.291 11.648-10.709 32.128-21.803 64.128-32.683 96.256-1.963 5.845-3.2 14.251-11.52 10.624-7.851-3.371-0.853-9.899 0.683-14.293 16.853-49.109 35.029-97.835 45.099-148.992 5.248-26.752 3.072-29.312-23.765-29.611-25.003-0.256-22.187 3.584-22.187-22.741 0.043-40.747-0.085-81.451 0.384-122.197 0.171-12.629-2.688-21.035-17.28-21.291-15.403-0.256-16.811 9.515-16.939 21.461-0.555 43.52-1.408 87.083-2.389 130.603-0.128 6.144 2.688 14.293-8.704 14.421-11.563 0.128-8.619-8.021-8.704-14.165-0.171-19.755-0.043-39.509-0.043-59.307zM668.117 426.837c42.112-3.413 59.947-27.819 68.352-61.696 2.347-9.472 1.963-18.987-0.085-28.544-1.579-7.296-3.925-13.397-12.885-12.16-7.808 1.067-8.96 6.741-9.216 13.696-0.597 16.555-3.456 32.64-14.549 45.909-2.432 2.901-4.907 6.443-10.581 5.504-3.157-6.144 1.493-11.435 3.243-16.725 8.747-26.24 17.493-52.395 23.339-79.531 2.773-12.757 1.237-20.309-13.909-18.475-9.557 1.152-11.221-3.797-11.051-12.032 0.427-23.723 0.171-47.488 0.384-71.253 0.085-8.021-0.597-14.848-11.136-15.061-10.667-0.213-11.648 7.125-11.819 14.805-0.427 23.168-0.299 46.379-0.981 69.547-0.128 4.693 3.669 13.611-5.12 13.099-8.021-0.427-4.395-9.045-4.395-13.995 0-22.016 1.067-44.075 0.811-66.091-0.085-7.808 0.896-17.835-12.587-17.536-13.269 0.299-11.861 9.301-11.904 17.749-0.128 22.613-0.427 45.227-0.128 67.84 0.128 8.619-1.109 14.592-11.733 13.184-12.928-1.749-15.275 4.779-13.483 16.171 4.395 28.032 13.696 54.699 21.888 81.664 1.579 5.205 3.413 10.368 5.803 17.664-15.531-4.523-19.072-16.085-22.571-26.752-2.645-7.936-3.584-16.555-4.096-24.96-0.427-7.381-1.451-14.165-9.6-15.744-9.301-1.792-11.093 6.315-13.056 12.544-11.691 37.291 20.565 85.333 59.307 88.704 1.536 0.128 3.029 0.512 6.357 1.067-19.584 12.629-34.645 26.667-25.088 51.456 5.675 14.677 22.571 23.851 38.528 21.717 15.061-2.005 28.544-14.891 31.061-29.696 2.688-15.915-5.632-29.355-29.099-42.069zM515.029 385.408c0-65.749 0-127.829 0-189.952 0-8.491 1.451-17.963-11.307-18.475-11.392-0.469-16.171 5.333-16.128 16.64 0.085 28.245-0.256 56.533-0.683 84.779-0.085 5.248 2.005 11.136-2.56 15.872-6.357-0.512-4.949-5.419-5.035-8.832-0.768-30.507-1.792-60.971-1.664-91.477 0.043-12.075-3.413-17.749-16.171-17.579-12.373 0.171-14.891 6.528-14.805 17.323 0.384 60.459 0.384 120.96 0.427 181.419 0 3.072 1.493 6.699-2.859 10.027-12.715-13.867-14.891-30.677-14.464-48.213 0.213-8.917 0.768-17.408-11.563-18.389-11.776-0.896-15.616 5.035-16.597 16.043-2.944 33.067 3.243 63.019 33.28 81.323 29.013 17.707 61.611 18.005 90.496 1.579 30.421-17.323 38.955-48.171 36.267-82.005-0.725-9.088-3.584-16.896-15.061-16.512-10.581 0.341-11.904 7.381-12.971 16.128-2.091 16.768-1.536 34.816-18.603 50.304zM205.013 664.917c-0.213 30.208 24.149 54.571 54.699 54.741 30.251 0.171 56.107-24.32 56.576-53.632 0.469-29.099-25.173-54.357-55.467-54.741-30.677-0.384-55.595 23.595-55.808 53.632zM870.784 703.488c30.293-0.171 54.144-22.912 53.931-51.413-0.256-27.776-25.557-51.243-54.912-50.944-29.653 0.299-53.589 23.637-53.419 52.053 0.213 28.928 23.509 50.475 54.4 50.304zM479.573 512.768c21.077-0.043 38.144-16.896 37.845-37.376-0.299-19.669-19.115-37.248-39.168-36.651-19.371 0.597-36.821 18.048-37.163 37.205-0.384 20.096 17.109 36.864 38.485 36.821z" />
<glyph unicode="&#xe925;" glyph-name="property" d="M533.845 871.68h-4.437l-502.827-351.019v-20.821h970.837v19.2zM129.835 478.763v-454.443h764.288v454.443h-764.288z" />
<glyph unicode="&#xe926;" glyph-name="res-property" d="M533.845 871.68h-4.437l-502.827-351.019v-20.821h970.837v19.2zM560.597 268.757c-12.885-0.341-23.339-7.637-32.085-16.427-11.221-11.307-16-25.6-16-41.557 0.085-26.752 0-53.547 0-80.299 0-3.456 0-6.955 0-10.752 1.28 0.171 1.792 0.085 2.219 0.299 29.568 14.677 46.123 38.016 47.232 71.467 0.256 8.448 0.043 16.896 0.043 26.197 16.597 0.512 31.872 4.565 45.227 14.421 13.184 9.728 22.741 22.059 28.288 36.821-25.173 0-50.048 0.427-74.923-0.171zM129.835 478.763v-454.443h764.288v454.443h-764.288zM512.512 49.621c-109.995 0-199.168 89.173-199.168 199.168s89.173 199.125 199.168 199.125 199.125-89.173 199.125-199.125c0.043-109.995-89.131-199.168-199.125-199.168zM623.531 327.168c3.285 0 6.571 0 11.691 0-4.736 6.912-8.533 12.971-12.843 18.603-15.189 19.883-35.755 29.483-60.416 29.739-15.147 0.171-30.379-0.896-45.525-1.92-14.208-0.981-27.648-5.504-40.107-12.075-16.256-8.576-30.251-20.139-42.112-34.432-18.859-22.656-28.757-48.555-29.397-77.909-0.427-18.944 0.043-37.888-0.128-56.832-0.085-9.813 1.365-19.285 5.077-28.373 8.661-21.291 23.765-36.139 45.483-45.483 0 2.347 0 4.096 0 5.888 0 31.403-0.555 62.848 0.299 94.251 0.299 11.051 3.157 22.315 6.656 32.939 7.083 21.589 21.589 38.229 39.083 52.181 19.371 15.403 41.728 22.955 66.347 23.381 18.645 0.341 37.291 0.043 55.893 0.043z" />
<glyph unicode="&#xe927;" d="M512 941.824c-272.725 0-493.824-221.099-493.824-493.824s221.099-493.824 493.824-493.824 493.824 221.099 493.824 493.824-221.099 493.824-493.824 493.824zM727.509 414.165c-32-23.637-68.608-33.365-108.459-34.56 0-22.315 0.555-42.581-0.085-62.848-2.603-80.299-42.368-136.192-113.28-171.477-0.981-0.469-2.261-0.341-5.333-0.725 0 9.131 0 17.451 0 25.771 0 64.213 0.128 128.384-0.043 192.597-0.085 38.272 11.349 72.533 38.315 99.712 20.992 21.12 46.123 38.656 77.013 39.467 59.605 1.536 119.296 0.427 179.712 0.427-13.269-35.456-36.224-65.024-67.84-88.363zM787.243 642.432c-46.165 0-92.331 0.683-138.496-0.171-61.056-1.109-116.48-19.797-164.48-57.984-43.477-34.603-79.403-75.776-96.939-129.365-8.619-26.283-15.701-54.229-16.469-81.621-2.176-77.824-0.768-155.776-0.768-233.685 0-4.395 0-8.789 0-14.592-53.803 23.083-91.264 59.947-112.725 112.725-9.173 22.528-12.757 45.952-12.544 70.315 0.427 46.976-0.683 93.995 0.341 140.971 1.579 72.747 26.112 136.96 72.875 193.152 29.44 35.371 64.085 64.043 104.405 85.333 30.891 16.299 64.213 27.52 99.456 29.995 37.547 2.603 75.264 5.163 112.853 4.779 61.141-0.64 112.128-24.448 149.803-73.728 10.667-13.952 20.011-28.928 31.787-46.080-12.8-0.043-20.949-0.043-29.099-0.043z" />
<glyph unicode="&#xe928;" d="M965.376 55.552c-3.712 27.477-21.163 46.592-49.92 57.387-2.304 0.853-2.944 1.92-2.859 4.053 0.64 16.469-3.755 31.957-12.672 46.336-22.272 35.925-65.621 54.699-110.72 48.213-32-4.565-56.363-19.968-73.515-44.288-1.408-2.005-2.731-2.901-5.547-2.56-23.211 2.773-43.819-2.688-61.739-16-11.051-8.235-18.773-18.56-23.765-30.592-1.707 0-3.2 0-4.736 0-35.797 0.085-66.901-20.693-76.8-51.328-1.152-3.499-5.077-16.384-2.048-30.805 5.589-33.621 39.424-59.605 77.611-59.605 89.344 0 178.688 0 268.032 0.043 4.011 0 8.021 0.213 11.989 0.725 39.125 5.248 72.277 37.376 66.688 78.421zM895.36-16.043c-3.541-0.469-7.211-0.683-10.795-0.683-80.555-0.043-161.152-0.043-241.707-0.043-34.475 0-64.939 23.424-69.973 53.76-2.731 12.971 0.811 24.619 1.835 27.776 8.917 27.648 36.992 46.336 69.291 46.293 1.365 0 2.731 0 4.267 0 4.523 10.837 11.477 20.181 21.419 27.605 16.171 12.032 34.773 16.939 55.68 14.421 2.56-0.299 3.712 0.469 5.035 2.304 15.488 21.931 37.461 35.797 66.304 39.936 40.661 5.845 79.787-11.093 99.84-43.477 8.021-12.971 11.989-26.923 11.392-41.771-0.085-1.963 0.469-2.901 2.56-3.669 25.941-9.728 41.685-26.965 45.013-51.755 5.077-37.035-24.832-65.963-60.16-70.699z" />
<glyph unicode="&#xe929;" d="M895.104-16.299c-3.541-0.469-7.211-0.683-10.795-0.683-80.555-0.043-161.152-0.043-241.707-0.043-34.475 0-64.939 23.424-69.973 53.76-2.731 13.013 0.811 24.619 1.835 27.776 8.917 27.648 36.992 46.336 69.291 46.293 1.365 0 2.731 0 4.267 0 4.523 10.837 11.477 20.181 21.419 27.605 16.171 12.032 34.773 16.939 55.68 14.421 2.56-0.299 3.712 0.469 5.035 2.304 15.488 21.931 37.461 35.797 66.304 39.936 40.661 5.845 79.787-11.093 99.84-43.477 8.021-12.971 11.989-26.923 11.392-41.771-0.085-1.963 0.469-2.901 2.56-3.669 25.941-9.728 41.685-26.965 45.013-51.755 5.035-36.992-24.832-65.963-60.16-70.699z" />
<glyph unicode="&#xe92a;" d="M52.267 198.699c13.184 1.323 31.744 0.512 47.019 0.512 98.859 0 199.168 0 299.093 0 7.765 0 15.829 0.981 22.741 0 6.656-0.939 13.184-5.291 20.096-7.381 19.84-6.101 45.611-10.581 70.827-10.581 30.677 0 57.515 5.461 80.853 14.251 3.072 1.152 6.4 3.243 9.515 3.712 7.552 1.152 16.939 0 25.344 0 108.245 0 215.467 0 324.992 0 8.832 0 17.109 0.469 23.765-1.067 6.357-1.451 12.843-5.419 12.672-12.16-0.299-12.288-30.976-15.147-45.44-16.896-54.699-6.699-123.733-3.712-182.827-3.712-206.549 0-413.483 0-621.952 0-30.037 0-59.307 1.664-85.589 7.936-7.851 1.877-18.048 5.547-18.475 12.16-0.64 8.832 7.211 12.203 17.365 13.227z" />
<glyph unicode="&#xe92b;" d="M145.835 730.283c13.141 1.835 31.659 0.512 47.019 0.512 168.619 0 339.243 0 508.885 0 43.477 0 91.605 0 138.965 0 13.611 0 33.92 1.92 43.861-2.133 6.997-2.816 12.928-8.491 13.739-19.029 1.579-20.181 0-40.747 0-60.245 0-129.109 0-259.157 0-389.461 0-11.136 0.768-21.419-1.579-27.989-2.517-7.083-7.979-12.629-16.896-14.251-12.928-2.389-29.995-0.512-45.952-0.512-217.771 0-432.555 0-650.496 0-24.619 0-48-3.627-55.467 12.672-2.773 6.016-2.133 17.109-2.133 28.544 0 142.635 0 283.093 0 426.453 0 10.624-0.981 21.12 1.067 29.056 2.688 10.624 10.325 15.189 18.987 16.384zM147.925 697.515c0-150.784 0-301.568 0-452.352 242.219 0 484.395 0 726.571 0 0 151.296 0 302.592 0 453.931-242.005 0-484.053 0-726.059 0-0.597-0.085-0.555-0.811-0.512-1.579z" />
<glyph unicode="&#xe92c;" d="M179.2 671.147c63.531 0 127.061 0 190.549 0 0-16.597 0-33.237 0-49.835-63.616 0-127.232 0-190.891 0 0 16.299 0 32.64 0 48.939 0 0.427 0 0.853 0.341 0.896zM186.795 661.717c0-4.053 0-8.107 0-12.16 25.216 0 50.475 0 75.691 0 0 4.352 0 8.704 0 13.056-25.131 0-50.261 0-75.392 0-0.341 0-0.341-0.427-0.299-0.896zM333.611 646.229c0-6.784 5.547-12.032 11.563-12.459 9.515-0.683 16.597 9.429 12.16 18.219-1.92 3.84-7.040 7.125-12.757 6.4-6.187-0.811-10.965-5.205-10.965-12.16zM186.795 639.531c0-3.968 0-7.893 0-11.861 25.216 0 50.475 0 75.691 0 0 4.267 0 8.491 0 12.757-25.131 0-50.261 0-75.392 0-0.341 0-0.341-0.427-0.299-0.896z" />
<glyph unicode="&#xe92d;" d="M179.2 615.552c63.531 0 127.061 0 190.549 0 0-16.597 0-33.237 0-49.835-63.616 0-127.232 0-190.891 0 0 16.299 0 32.64 0 48.939 0 0.384 0 0.811 0.341 0.896zM186.795 605.824c0-4.053 0-8.107 0-12.16 25.216 0 50.475 0 75.691 0 0 4.352 0 8.704 0 13.056-25.131 0-50.261 0-75.392 0-0.341-0.043-0.341-0.469-0.299-0.896zM335.744 597.589c-4.437-6.528-0.768-15.445 4.565-18.219 7.424-3.883 17.024 1.067 18.219 8.832 1.493 9.429-6.059 14.891-12.757 14.592-4.651-0.256-8.32-2.645-10.027-5.205zM186.795 583.936c0-4.053 0-8.107 0-12.16 25.216 0 50.475 0 75.691 0 0 4.352 0 8.704 0 13.056-25.131 0-50.261 0-75.392 0-0.341-0.043-0.341-0.469-0.299-0.896z" />
<glyph unicode="&#xe92e;" d="M179.2 559.616c63.531 0 127.061 0 190.549 0 0-16.597 0-33.237 0-49.835-63.616 0-127.232 0-190.891 0 0 16.299 0 32.64 0 48.939 0 0.427 0 0.853 0.341 0.896zM186.795 550.187c0-4.053 0-8.107 0-12.16 25.216 0 50.475 0 75.691 0 0 4.352 0 8.704 0 13.056-25.131 0-50.261 0-75.392 0-0.341-0.043-0.341-0.469-0.299-0.896zM346.069 522.24c7.723-0.043 15.019 8.32 11.861 17.024-1.877 5.205-7.808 8.661-13.995 7.595-14.379-2.475-13.013-24.576 2.133-24.619zM186.795 528.299c0-4.053 0-8.107 0-12.16 25.216 0 50.475 0 75.691 0 0 4.352 0 8.704 0 13.056-25.131 0-50.261 0-75.392 0-0.341-0.043-0.341-0.469-0.299-0.896z" />
<glyph unicode="&#xe92f;" d="M578.389 686.123c30.165 13.227 70.827 23.381 112.512 18.688 29.227-3.285 54.485-12.928 75.691-25.429 7.168-4.224 14.592-8.064 20.736-12.459 25.301-17.963 46.379-43.563 60.16-74.155 14.037-31.104 22.528-69.376 17.621-114.603 41.387-7.723 75.179-23.893 97.493-51.84 10.88-13.653 19.456-31.147 22.315-52.395 2.816-21.12 0.512-46.336-6.229-66.389-12.331-36.693-38.485-61.312-75.691-73.643-37.077-12.288-93.056-4.011-142.592-5.717 0 2.944 0 5.888 0 8.832 1.152 1.877 5.376 1.024 8.277 1.024 31.147 0 66.475 0 98.005 0 11.051 0 20.651 2.091 30.080 5.205 35.968 11.776 61.696 33.365 73.131 69.504 13.184 41.685 3.755 87.168-18.688 111.488-22.955 24.875-55.765 39.637-97.493 44.587 11.776 89.728-22.741 155.136-75.179 190.848-25.685 17.493-58.709 34.048-99.584 35.797-43.861 1.835-79.744-10.069-108.885-25.429-7.424 66.176-55.253 109.056-135.339 95.915-64.299-10.539-99.755-60.032-110.464-124.459-32.256-9.856-61.141-24.917-82.987-45.653-10.667-10.112-20.992-21.717-28.501-35.797-7.424-13.909-13.44-30.805-13.483-50.816-77.696-11.179-134.229-44.928-148.309-119.808-3.925-20.864-4.565-41.429 1.024-59.648 13.44-43.733 53.291-72.021 96.469-87.637 4.096-1.493 8.704-3.584 12.459-4.139 8.576-1.28 18.987 0 28.501 0 64.597 0 132.437 0.427 196.523-0.512 0-3.285 0-6.571 0-9.856-65.195 0-131.243 0-197.035 0-9.344 0-19.157-0.939-27.989 0-8.405 0.896-18.816 5.376-26.965 8.832-40.192 16.981-75.52 44.288-90.197 86.187-6.357 18.176-7.296 40.661-4.139 62.208 5.931 40.533 24.064 70.656 49.792 91.776 25.899 21.248 58.283 35.499 99.584 41.472 5.248 36.779 22.016 64.256 44.075 84.523 22.144 20.352 49.579 36.224 81.408 46.677 14.848 69.333 57.173 124.885 136.917 129.109 73.643 3.968 112.213-34.304 126.976-92.288z" />
<glyph unicode="&#xe930;" d="M410.923 392.619c108.373 0 216.747 0 325.12 0 0-28.331 0-56.704 0-85.035-108.544 0-217.088 0-325.675 0 0 27.819 0 55.68 0 83.499-0.043 0.725-0.043 1.451 0.555 1.536zM423.893 376.576c0-6.912 0-13.824 0-20.736 43.051 0 86.101 0 129.109 0 0 7.424 0 14.848 0 22.315-42.88 0-85.717 0-128.597 0-0.597-0.128-0.597-0.853-0.512-1.579zM674.347 350.123c0-11.563 9.472-20.565 19.712-21.248 16.213-1.109 28.288 16.085 20.736 31.104-3.285 6.528-11.989 12.203-21.76 10.88-10.496-1.365-18.688-8.917-18.688-20.736zM423.893 338.688c0-6.741 0-13.483 0-20.224 43.051 0 86.101 0 129.109 0 0 7.253 0 14.507 0 21.76-42.88 0-85.717 0-128.597 0-0.597-0.043-0.597-0.768-0.512-1.536z" />
<glyph unicode="&#xe931;" d="M410.923 297.728c108.373 0 216.747 0 325.12 0 0-28.331 0-56.704 0-85.035-108.544 0-217.088 0-325.675 0 0 27.819 0 55.68 0 83.499-0.043 0.725-0.043 1.451 0.555 1.536zM423.893 281.131c0-6.912 0-13.824 0-20.736 43.051 0 86.101 0 129.109 0 0 7.424 0 14.848 0 22.315-42.88 0-85.717 0-128.597 0-0.597-0.085-0.597-0.811-0.512-1.579zM677.973 267.136c-7.552-11.136-1.323-26.368 7.765-31.104 12.629-6.613 29.013 1.835 31.104 15.019 2.56 16.043-10.325 25.429-21.76 24.875-7.893-0.341-14.165-4.437-17.109-8.789zM423.893 243.797c0-6.912 0-13.824 0-20.736 43.051 0 86.101 0 129.109 0 0 7.424 0 14.848 0 22.315-42.88 0-85.717 0-128.597 0-0.597-0.085-0.597-0.853-0.512-1.579z" />
<glyph unicode="&#xe932;" d="M410.923 202.325c108.373 0 216.747 0 325.12 0 0-28.331 0-56.704 0-85.035-108.544 0-217.088 0-325.675 0 0 27.819 0 55.68 0 83.499-0.043 0.725-0.043 1.451 0.555 1.536zM423.893 186.24c0-6.912 0-13.824 0-20.736 43.051 0 86.101 0 129.109 0 0 7.424 0 14.848 0 22.315-42.88 0-85.717 0-128.597 0-0.597-0.085-0.597-0.853-0.512-1.579zM695.595 138.539c13.227-0.043 25.6 14.165 20.224 29.056-3.2 8.917-13.355 14.763-23.851 12.971-24.533-4.224-22.187-41.899 3.627-42.027zM423.893 148.907c0-6.912 0-13.824 0-20.736 43.051 0 86.101 0 129.109 0 0 7.424 0 14.848 0 22.315-42.88 0-85.717 0-128.597 0-0.597-0.085-0.597-0.853-0.512-1.579z" />
<glyph unicode="&#xe933;" glyph-name="tutorial" d="M670.72 778.581c9.216-8.491 3.157-25.557 2.389-33.237 7.723-6.571 13.525-13.227 22.187-22.315 140.971-143.829 56.064-385.237-140.032-421.205-243.755-35.883-387.584 241.579-229.973 418.645 5.419 10.667 36.693 22.613 23.339 33.195-18.645 45.099 40.405 21.803-135.339 76.587-95.616 32.171-114.816 7.296 322.603 111.317 447.275-138.368 378.496-85.12 134.827-162.987zM921.131-45.568c-265.771 0-817.792 0.427-817.792 0.427s-1.579 115.968 3.883 162.56c49.195 53.12 118.229 86.144 187.861 109.483 208.896 49.109 166.699 49.109 210.773-80.683 33.365-28.245 6.187 114.987 82.944 107.136 119.552-12.885 241.749-47.275 330.368-137.685 5.205-50.603 0.341-108.459 1.963-161.237zM188.416 616.363c5.973-21.675-22.357-33.024-44.16-32.597-51.84-1.493 1.493 211.669 4.608 237.44 22.656 52.992 35.627-196.224 39.552-204.843z" />
<glyph unicode="&#xe934;" glyph-name="error-circle" d="M512 941.824c-272.725 0-493.824-221.099-493.824-493.824s221.099-493.824 493.824-493.824 493.824 221.099 493.824 493.824-221.099 493.824-493.824 493.824zM553.131 139.349h-82.304v82.304h82.304v-82.304zM553.131 303.957h-82.304v452.693h82.304v-452.693z" />
<glyph unicode="&#xe935;" glyph-name="error" d="M470.869 756.651h82.304v-452.651h-82.304v452.651zM470.869 221.653h82.304v-82.304h-82.304v82.304z" />
<glyph unicode="&#xe936;" glyph-name="announcement" d="M775.424 488.533c0 151.083-126.464 272.683-279.296 264.661-138.027-7.253-249.259-123.52-250.709-261.76-0.939-86.869 39.936-164.224 103.765-213.205 23.125-17.749 35.797-45.952 35.797-75.093v-11.179c0-25.344 18.816-44.117 41.813-44.117h167.296c22.997 0 41.813 18.816 41.813 41.813v14.080c0 28.843 12.587 56.789 35.499 74.325 63.232 48.384 104.021 124.672 104.021 210.475zM604.501 118.187h-188.16c-17.237 0-31.36-14.123-31.36-31.36v-41.813c0-17.237 14.123-31.36 31.36-31.36v-10.453c0-17.237 14.123-31.36 31.36-31.36h125.44c17.237 0 31.36 14.123 31.36 31.36v10.453c17.237 0 31.36 14.123 31.36 31.36v41.813c0 17.237-14.080 31.36-31.36 31.36zM526.464 800.085h-32.085c-0.299 0-0.512 0.256-0.512 0.512v123.051c0 0.299 0.256 0.512 0.512 0.512h32.085c0.299 0 0.512-0.256 0.512-0.512v-123.008c0.043-0.299-0.213-0.555-0.512-0.555zM833.835 486.101v32.085c0 0.299 0.256 0.512 0.512 0.512h123.008c0.299 0 0.512-0.256 0.512-0.512v-32.085c0-0.299-0.256-0.512-0.512-0.512h-123.008c-0.299-0.043-0.512 0.213-0.512 0.512zM66.091 486.101v32.085c0 0.299 0.256 0.512 0.512 0.512h123.008c0.299 0 0.512-0.256 0.512-0.512v-32.085c0-0.299-0.256-0.512-0.512-0.512h-122.965c-0.299-0.043-0.555 0.213-0.555 0.512zM742.912 700.587l-22.699 22.699c-0.213 0.213-0.213 0.555 0 0.768l86.997 86.997c0.213 0.213 0.555 0.213 0.768 0l22.699-22.699c0.213-0.213 0.213-0.555 0-0.768l-86.997-86.997c-0.213-0.213-0.555-0.213-0.768 0zM300.629 723.285l-22.699-22.699c-0.213-0.213-0.555-0.213-0.768 0l-86.997 86.955c-0.213 0.213-0.213 0.555 0 0.768l22.699 22.699c0.213 0.213 0.555 0.213 0.768 0l86.997-86.997c0.213-0.171 0.213-0.512 0-0.725z" />
<glyph unicode="&#xe937;" glyph-name="announcement-circle" d="M515.584 941.824c-272.725 0-493.781-221.099-493.781-493.824s221.099-493.824 493.824-493.824c272.725 0 493.824 221.099 493.824 493.824-0.043 272.725-221.141 493.824-493.867 493.824zM508.629 686.72c0 4.779 3.925 8.704 8.704 8.704s8.704-3.925 8.704-8.704v-47.659c0-4.779-3.925-8.704-8.704-8.704s-8.704 3.925-8.704 8.704v47.659zM340.736 465.451h-47.659c-4.779 0-8.704 3.925-8.704 8.704s3.925 8.704 8.704 8.704h47.659c4.779 0 8.704-3.925 8.704-8.704s-3.925-8.704-8.704-8.704zM355.413 630.144c3.371 3.371 8.917 3.371 12.288 0l33.707-33.707c3.371-3.371 3.371-8.917 0-12.288s-8.917-3.371-12.288 0l-33.707 33.707c-3.413 3.371-3.413 8.875 0 12.288zM583.125 234.496c0-9.045-7.381-16.427-16.427-16.427v-5.461c0-9.045-7.381-16.427-16.427-16.427h-65.792c-9.045 0-16.427 7.381-16.427 16.427v5.419c-9.045 0-16.427 7.381-16.427 16.427v21.973c0 9.045 7.381 16.427 16.427 16.427h98.645c9.045 0 16.427-7.381 16.427-16.427v-21.931zM601.728 356.651c-12.032-9.216-18.603-23.851-18.603-38.955v-7.381c0-12.075-9.856-21.931-21.931-21.931h-87.68c-12.075 0-21.931 9.856-21.931 23.125v5.845c0 15.275-6.656 30.080-18.773 39.381-33.451 25.685-54.869 66.219-54.4 111.787 0.768 72.448 59.093 133.419 131.456 137.216 80.128 4.224 146.432-59.52 146.432-138.752-0.043-44.971-21.419-84.949-54.571-110.336zM679.253 617.856l-33.707-33.707c-3.371-3.371-8.917-3.371-12.288 0s-3.371 8.917 0 12.288l33.707 33.707c3.371 3.371 8.917 3.371 12.288 0 3.413-3.413 3.413-8.917 0-12.288zM743.253 465.451h-47.659c-4.779 0-8.704 3.925-8.704 8.704s3.925 8.704 8.704 8.704h47.659c4.779 0 8.704-3.925 8.704-8.704-0.043-4.779-3.925-8.704-8.704-8.704z" />
<glyph unicode="&#xe938;" glyph-name="brand-icon" d="M665.557 530.389c-48.853-1.237-88.576-28.928-121.771-62.379-42.624-42.965-60.757-97.109-60.629-157.653 0.256-101.504 0.085-203.008 0.085-304.512 0-13.184 0-26.325 0-40.789 4.821 0.64 6.869 0.384 8.405 1.152 112.085 55.723 174.976 144.171 179.072 271.104 1.024 32.043 0.171 64.128 0.171 99.371 63.019 1.92 120.875 17.323 171.477 54.656 49.963 36.864 86.229 83.627 107.307 139.691-95.531 0.085-189.867 1.792-284.117-0.64zM904.192 752.043c12.459 0 24.96 0 44.331 0-18.048 26.283-32.341 49.152-48.64 70.528-57.557 75.349-135.552 111.829-229.077 112.768-57.515 0.597-115.157-3.328-172.587-7.296-53.845-3.755-104.832-20.907-152.107-45.824-61.653-32.555-114.645-76.373-159.659-130.517-71.552-86.016-109.056-184.235-111.488-295.509-1.579-71.851 0.171-143.744-0.512-215.595-0.341-37.248 5.205-73.131 19.2-107.563 32.811-80.725 90.155-137.088 172.459-172.416 0 8.875 0 15.616 0 22.315 0 119.168-2.176 238.379 1.152 357.461 1.195 41.899 12.032 84.693 25.173 124.843 26.837 81.963 81.835 144.939 148.309 197.845 73.387 58.453 158.208 86.997 251.563 88.704 70.656 1.28 141.269 0.256 211.883 0.256z" />
<glyph unicode="&#xe939;" horiz-adv-x="3071" d="M2118.741 500.309c0-17.536 0.171-36.267-0.256-54.997-0.043-1.877-3.285-4.907-5.504-5.333-12.885-2.645-25.813-6.101-38.827-6.528-16.213-0.555-32.853-0.213-48.683 2.816-33.109 6.315-50.475 25.131-55.723 58.496-2.091 13.44-2.987 27.179-3.115 40.832-0.384 40.789-0.128 81.621-0.128 122.411 0 2.901 0 5.803 0 9.472-20.011 0-39.424 0-59.392 0 0 20.693 0 40.619 0 61.611 19.413 0 38.997 0 59.179 0 0 28.331 0 55.637 0 83.456 24.363 0 48.128 0 72.619 0 0-27.563 0-54.827 0-83.029 26.667 0 52.651 0 79.232 0 0-20.779 0-40.661 0-61.355-25.984 0-52.011 0-78.763 0-0.171-3.669-0.384-6.528-0.384-9.387-0.043-39.595-0.043-79.189 0.043-118.741 0-4.864 0.299-9.771 1.024-14.592 3.285-21.931 17.664-33.067 41.813-31.189 12.032 0.896 23.893 3.84 36.864 6.059z" />
<glyph unicode="&#xe93a;" horiz-adv-x="3071" d="M149.12 619.008c2.005 8.192 4.053 16.384 6.016 24.576 4.736 19.627 14.421 36.736 27.605 51.669 16.811 19.072 35.968 35.584 60.587 43.477 13.568 4.352 27.904 7.851 42.112 8.661 24.832 1.365 49.792 0.384 74.709 0.384 2.645 0 5.248 0 8.277 0 0-24.32 0-47.915 0-72.747-2.432 0-4.992 0-7.552 0-20.523 0-41.045 0.384-61.568-0.128-16-0.427-31.573-3.2-44.971-13.099-19.584-14.464-30.805-33.237-30.763-58.155 0.085-47.872 0.043-95.744 0.043-143.616 0-2.859 0-5.76 0-9.643-25.301 0-49.92 0-74.496 0 0 56.192 0 112.384 0 168.619z" />
<glyph unicode="&#xe93b;" horiz-adv-x="3071" d="M686.037 492.032c15.573 14.677 30.72 29.099 46.123 43.179 1.024 0.939 4.992 0.384 6.101-0.853 19.115-20.907 41.643-34.347 70.997-32.341 11.093 0.768 21.717 4.139 30.805 10.965 16.896 12.715 15.317 36.651-4.224 45.397-14.72 6.571-30.805 10.283-46.464 14.379-24.832 6.485-50.347 10.923-70.955 27.989-11.392 9.429-17.664 21.888-20.864 36.053-4.608 20.437-2.731 40.149 5.931 59.307 10.069 22.315 28.544 35.371 50.048 44.629 23.595 10.155 48.768 12.288 74.027 10.24 24.405-2.005 47.957-8.235 68.011-23.339 7.424-5.632 13.824-12.629 21.675-19.925-16.896-15.189-33.109-29.781-48.768-43.861-8.832 7.339-16.085 15.659-25.216 20.48-20.053 10.667-40.96 12.629-61.568 0.171-10.453-6.315-14.379-15.744-12.203-27.179 1.792-9.472 9.685-14.805 17.963-17.28 20.608-6.144 41.685-10.88 62.464-16.469 19.883-5.333 39.168-12.16 54.315-27.008 13.781-13.568 19.413-30.677 20.48-49.493 0.811-14.123-0.725-27.904-6.144-41.216-7.637-18.773-21.163-32.043-38.656-41.216-18.475-9.728-38.357-14.635-59.264-16.683-27.605-2.731-54.528-1.024-80.811 7.68-21.12 6.997-39.125 18.859-53.803 36.395z" />
<glyph unicode="&#xe93c;" horiz-adv-x="3071" d="M603.307 545.664c17.92-13.568 35.328-26.709 53.205-40.235-21.547-27.691-49.237-45.952-83.2-53.845-41.899-9.771-82.688-5.547-120.789 14.763-40.917 21.845-65.536 56.32-74.368 101.931-5.803 30.080-3.541 59.563 7.296 88.235 12.331 32.597 33.963 57.387 64.341 74.368 29.952 16.768 62.549 23.253 96.384 20.352 45.653-3.925 81.365-24.448 103.125-66.432 11.264-21.76 17.365-44.715 18.645-69.035 0.725-13.824 1.408-27.605 2.176-42.325-73.941 0-146.816 0-220.501 0 0.085-12.203 3.925-22.4 9.728-31.744 13.483-21.803 33.28-33.067 58.837-35.285 26.667-2.304 49.792 5.077 69.504 22.955 5.376 4.821 10.027 10.411 15.616 16.299zM595.925 628.565c-1.152 54.784-46.891 74.325-91.179 66.133-34.048-6.272-56.235-40.235-54.272-66.133 48.341 0 96.64 0 145.451 0z" />
<glyph unicode="&#xe93d;" horiz-adv-x="3071" d="M2384.085 532.395c17.92-13.568 35.328-26.709 53.205-40.235-21.547-27.691-49.237-45.952-83.2-53.845-41.899-9.771-82.688-5.547-120.789 14.763-40.917 21.845-65.536 56.32-74.368 101.931-5.803 30.080-3.541 59.563 7.296 88.235 12.331 32.597 33.963 57.387 64.341 74.368 29.952 16.768 62.549 23.253 96.384 20.352 45.653-3.925 81.365-24.448 103.125-66.432 11.264-21.76 17.365-44.715 18.645-69.035 0.725-13.824 1.408-27.605 2.176-42.325-73.941 0-146.816 0-220.501 0 0.085-12.203 3.925-22.4 9.728-31.744 13.483-21.803 33.28-33.067 58.837-35.285 26.667-2.304 49.792 5.077 69.504 22.955 5.376 4.821 10.027 10.368 15.616 16.299zM2376.704 615.296c-1.152 54.784-46.891 74.325-91.179 66.133-34.048-6.272-56.235-40.235-54.272-66.133 48.341 0 96.64 0 145.451 0z" />
<glyph unicode="&#xe93e;" horiz-adv-x="3071" d="M1045.547 776.789h-78.507v71.467h78.507v-71.467zM966.997 741.461h78.507v-296.192h-78.507v296.192z" />
<glyph unicode="&#xe93f;" horiz-adv-x="3071" d="M1359.36 724.48c19.371-16.043 29.099-42.624 29.099-79.744v-199.424h-79.36v180.139c0 15.573-2.048 27.52-6.187 35.883-7.552 15.232-21.931 22.827-43.136 22.827-26.069 0-43.947-11.136-53.675-33.408-5.035-11.776-7.552-26.795-7.552-45.099v-160.299h-77.44v295.595h75.008v-43.221c9.899 15.232 19.285 26.155 28.16 32.896 15.872 11.947 35.968 17.92 60.331 17.92 30.421 0 55.339-8.021 74.752-24.064z" />
<glyph unicode="&#xe940;" horiz-adv-x="3071" d="M1520.512 539.861c1.621-13.781 5.205-23.552 10.667-29.355 9.643-10.325 27.477-15.488 53.504-15.488 15.275 0 27.435 2.261 36.437 6.784s13.525 11.307 13.525 20.395c0 8.704-3.627 15.317-10.88 19.84s-34.261 12.331-81.024 23.381c-33.664 8.32-57.387 18.731-71.125 31.232-13.781 12.331-20.651 30.080-20.651 53.248 0 27.349 10.752 50.859 32.256 70.528s51.797 29.483 90.795 29.483c37.035 0 67.2-7.381 90.539-22.144s36.736-40.277 40.149-76.501h-77.397c-1.109 9.941-3.925 17.835-8.448 23.637-8.533 10.496-23.083 15.744-43.605 15.744-16.896 0-28.928-2.645-36.096-7.893s-10.752-11.392-10.752-18.475c0-8.875 3.797-15.317 11.435-19.285 7.637-4.181 34.56-11.307 80.853-21.461 30.848-7.253 53.973-18.219 69.376-32.896 15.232-14.848 22.827-33.408 22.827-55.723 0-29.355-10.923-53.291-32.811-71.851s-55.68-27.861-101.419-27.861c-46.635 0-81.109 9.813-103.339 29.483s-33.365 44.715-33.365 75.136h78.549z" />
<glyph unicode="&#xe941;" horiz-adv-x="3071" d="M1849.557 776.789h-78.507v71.467h78.507v-71.467zM1771.051 741.461h78.507v-296.192h-78.507v296.192z" />
<glyph unicode="&#xe942;" horiz-adv-x="3071" d="M2811.349 292.011l1.109 1.195 0.768-0.811 88.277 88.277 20.309-20.352v59.008h-56.661l20.309-21.461-71.765-72.491-66.048 65.792v50.731h-12.885v-187.051h187.051v12.928h-174.165v88.149z" />
<glyph unicode="&#xe943;" horiz-adv-x="3071" d="M2721.835 241.963v199.467c-96.981-6.187-174.592-87.296-174.592-186.539 0-103.296 83.968-187.52 187.264-187.52 99.243 0 180.565 77.611 186.795 174.592h-199.467z" />
<glyph unicode="&#xe944;" horiz-adv-x="3071" d="M161.536 197.419h10.24v-48.171h0.299c2.005 5.675 5.717 10.155 11.051 13.44s11.307 4.949 17.877 4.949c12.288 0 21.717-4.224 28.245-12.629 6.528-8.491 9.771-19.072 9.771-31.787s-3.243-23.253-9.685-31.659c-6.485-8.448-15.829-12.672-28.075-12.672-6.827-0.043-12.971 1.536-18.389 4.693-5.419 3.2-9.259 7.723-11.605 13.653h-0.299v-16.043h-9.472v116.224zM228.821 123.179c0 9.813-2.347 18.219-6.997 25.259s-11.733 10.581-21.248 10.581c-9.472 0-16.896-3.797-22.187-11.349-4.395-6.315-6.613-14.464-6.613-24.448 0-15.787 5.248-26.624 15.744-32.555 3.755-2.133 8.235-3.157 13.355-3.157 5.077 0 9.387 1.067 12.885 3.157 6.827 4.181 11.307 10.752 13.44 19.712 1.067 4.139 1.621 8.448 1.621 12.8z" />
<glyph unicode="&#xe945;" horiz-adv-x="3071" d="M261.333 110.635v54.571h10.24v-54.656c0.213-7.595 1.963-13.312 5.248-17.237s9.045-5.888 17.237-5.888c8.235 0 14.592 3.456 19.157 10.411 3.925 5.931 5.931 13.696 6.059 23.253v44.075h10.24v-84.053h-9.472v15.189h-0.299c-2.688-5.632-6.613-9.941-11.776-12.928s-10.88-4.48-17.195-4.565c-19.627 0.043-29.44 10.624-29.44 31.829z" />
<glyph unicode="&#xe946;" horiz-adv-x="3071" d="M363.819 144.128c-0.256-6.016 1.28-9.6 4.523-10.709 0.853-0.299 1.621-0.597 2.347-0.811l24.32-5.376c10.496-1.536 17.749-6.059 21.803-13.611 1.451-2.688 2.133-6.101 2.133-10.197 0-4.224-1.024-7.893-3.115-11.093-5.675-8.832-16-13.312-30.976-13.44-9.6-0.043-17.451 2.261-23.595 6.912s-9.685 12.16-10.581 22.485h10.24c0.427-6.912 2.944-12.117 7.552-15.616 4.608-3.541 10.325-5.248 17.195-5.205 9.557 0 16.469 2.816 20.736 8.448 1.493 1.963 2.219 4.309 2.219 7.040 0 6.656-3.925 11.008-11.819 13.099-2.176 0.939-4.395 1.792-6.613 2.517l-13.355 2.944c-7.125 1.792-12.757 4.352-16.981 7.723-4.224 3.285-6.315 8.533-6.315 15.829 0 7.253 3.413 12.971 10.24 17.152 5.76 3.541 12.928 5.333 21.376 5.333 13.781 0 23.125-5.035 27.989-15.104 1.664-3.328 2.56-7.296 2.773-11.861h-10.24c-0.128 3.115-0.768 5.845-2.005 8.192-3.541 6.784-9.984 10.197-19.243 10.197s-15.573-2.688-18.859-8.021c-1.152-1.92-1.749-4.224-1.749-6.827z" />
<glyph unicode="&#xe947;" horiz-adv-x="3071" d="M440.405 197.419h10.24v-16.469h-10.24v16.469zM440.405 165.205h10.24v-84.053h-10.24v84.053z" />
<glyph unicode="&#xe948;" horiz-adv-x="3071" d="M476.629 165.205h10.24v-14.549h0.299c1.963 5.077 5.419 9.173 10.411 12.245s10.453 4.651 16.384 4.693c16.469 0 26.283-6.272 29.44-18.859 0.939-4.011 1.451-8.533 1.451-13.525v-54.059h-10.24v52.395c0 16.981-7.125 25.429-21.291 25.429-7.893 0-14.251-2.688-18.987-8.107-4.821-5.419-7.296-12.331-7.381-20.736v-48.981h-10.24v84.053z" />
<glyph unicode="&#xe949;" horiz-adv-x="3071" d="M576.683 120.405c0-13.909 5.035-23.893 15.147-29.909 3.499-2.048 7.68-3.072 12.587-3.072 7.467 0 13.355 1.963 17.579 5.845 4.224 3.925 7.211 9.088 8.832 15.531h10.24c-2.176-9.557-6.187-16.896-12.032-22.101s-14.080-7.808-24.661-7.851c-12.757 0-22.315 4.224-28.587 12.715-6.315 8.491-9.429 18.859-9.387 31.189s3.029 22.656 8.96 30.933c6.656 9.259 16.341 13.909 29.013 13.909 12.629 0 22.272-4.907 28.885-14.72 5.888-8.704 8.576-19.499 8.107-32.427h-64.683zM576.683 129.024h54.485c-0.213 8.064-2.773 15.061-7.637 21.077-4.864 5.931-11.264 8.917-19.115 8.917s-14.208-2.901-19.115-8.747c-4.949-5.931-7.808-12.971-8.619-21.248z" />
<glyph unicode="&#xe94a;" horiz-adv-x="3071" d="M670.123 144.128c-0.256-6.016 1.28-9.6 4.523-10.709 0.853-0.299 1.621-0.597 2.347-0.811l24.32-5.376c10.496-1.536 17.749-6.059 21.803-13.611 1.451-2.688 2.133-6.101 2.133-10.197 0-4.224-1.024-7.893-3.115-11.093-5.675-8.832-16-13.312-30.976-13.44-9.6-0.043-17.451 2.261-23.595 6.912s-9.643 12.16-10.581 22.485h10.24c0.427-6.912 2.944-12.117 7.552-15.616 4.608-3.541 10.325-5.248 17.195-5.205 9.557 0 16.469 2.816 20.736 8.448 1.493 1.963 2.219 4.309 2.219 7.040 0 6.656-3.925 11.008-11.819 13.099-2.176 0.939-4.395 1.792-6.613 2.517l-13.355 2.944c-7.125 1.792-12.757 4.352-16.981 7.723-4.224 3.285-6.315 8.533-6.315 15.829 0 7.253 3.413 12.971 10.24 17.152 5.76 3.541 12.928 5.333 21.376 5.333 13.781 0 23.125-5.035 27.989-15.104 1.664-3.328 2.56-7.296 2.773-11.861h-10.24c-0.128 3.115-0.768 5.845-2.005 8.192-3.541 6.784-9.984 10.197-19.243 10.197s-15.573-2.688-18.859-8.021c-1.152-1.92-1.749-4.224-1.749-6.827z" />
<glyph unicode="&#xe94b;" horiz-adv-x="3071" d="M754.944 144.128c-0.256-6.016 1.28-9.6 4.523-10.709 0.853-0.299 1.621-0.597 2.347-0.811l24.32-5.376c10.496-1.536 17.749-6.059 21.803-13.611 1.451-2.688 2.133-6.101 2.133-10.197 0-4.224-1.024-7.893-3.115-11.093-5.675-8.832-16-13.312-30.976-13.44-9.6-0.043-17.451 2.261-23.595 6.912s-9.643 12.16-10.581 22.485h10.24c0.427-6.912 2.944-12.117 7.552-15.616 4.608-3.541 10.325-5.248 17.195-5.205 9.557 0 16.469 2.816 20.736 8.448 1.493 1.963 2.219 4.309 2.219 7.040 0 6.656-3.925 11.008-11.819 13.099-2.176 0.939-4.395 1.792-6.613 2.517l-13.355 2.944c-7.125 1.792-12.757 4.352-16.981 7.723-4.224 3.285-6.315 8.533-6.315 15.829 0 7.253 3.413 12.971 10.24 17.152 5.76 3.541 12.928 5.333 21.376 5.333 13.781 0 23.125-5.035 27.989-15.104 1.664-3.328 2.56-7.296 2.773-11.861h-10.24c-0.128 3.115-0.768 5.845-2.005 8.192-3.541 6.784-9.984 10.197-19.243 10.197s-15.573-2.688-18.859-8.021c-1.109-1.92-1.749-4.224-1.749-6.827z" />
<glyph unicode="&#xe94c;" horiz-adv-x="3071" d="M883.285 197.419h10.24v-16.469h-10.24v16.469zM883.285 165.205h10.24v-84.053h-10.24v84.053z" />
<glyph unicode="&#xe94d;" horiz-adv-x="3071" d="M919.552 165.205h10.24v-14.549h0.341c1.963 5.077 5.419 9.173 10.411 12.245s10.453 4.651 16.384 4.693c16.469 0 26.283-6.272 29.44-18.859 0.939-4.011 1.451-8.533 1.451-13.525v-54.059h-10.24v52.395c0 16.981-7.083 25.429-21.291 25.429-7.893 0-14.251-2.688-18.987-8.107-4.821-5.419-7.296-12.331-7.381-20.736v-48.981h-10.24v84.053z" />
<glyph unicode="&#xe94e;" horiz-adv-x="3071" d="M1019.648 156.587h-14.72v8.576h14.72v25.301h10.24v-25.301h17.109v-8.576h-17.109v-56.704c0-3.413 0.469-6.059 1.365-7.979s2.987-2.901 6.272-3.029 6.443 0 9.472 0.299v-8.576l-9.131-0.299c-6.827 0-11.605 1.323-14.293 3.968s-4.011 7.552-3.883 14.72v57.6z" />
<glyph unicode="&#xe94f;" horiz-adv-x="3071" d="M1074.304 120.405c0-13.909 5.035-23.893 15.147-29.909 3.499-2.048 7.68-3.072 12.587-3.072 7.467 0 13.355 1.963 17.579 5.845 4.224 3.925 7.211 9.088 8.832 15.531h10.24c-2.176-9.557-6.187-16.896-12.032-22.101s-14.080-7.808-24.661-7.851c-12.757 0-22.315 4.224-28.587 12.715-6.315 8.491-9.429 18.859-9.387 31.189s3.029 22.656 8.96 30.933c6.656 9.259 16.341 13.909 29.013 13.909 12.629 0 22.272-4.907 28.885-14.72 5.888-8.704 8.576-19.499 8.107-32.427h-64.683zM1074.304 129.024h54.485c-0.213 8.064-2.773 15.061-7.637 21.077-4.864 5.931-11.264 8.917-19.115 8.917s-14.208-2.901-19.115-8.747c-4.992-5.931-7.851-12.971-8.619-21.248z" />
<glyph unicode="&#xe950;" horiz-adv-x="3071" d="M1159.467 197.419h10.24v-116.267h-10.24v116.267z" />
<glyph unicode="&#xe951;" horiz-adv-x="3071" d="M1196.032 197.419h10.24v-116.267h-10.24v116.267z" />
<glyph unicode="&#xe952;" horiz-adv-x="3071" d="M1238.4 120.405c0-13.909 5.035-23.893 15.147-29.909 3.499-2.048 7.68-3.072 12.587-3.072 7.467 0 13.355 1.963 17.579 5.845 4.224 3.925 7.211 9.088 8.832 15.531h10.24c-2.176-9.557-6.187-16.896-12.032-22.101s-14.080-7.808-24.661-7.851c-12.757 0-22.315 4.224-28.587 12.715-6.315 8.491-9.429 18.859-9.387 31.189s3.029 22.656 8.96 30.933c6.656 9.259 16.341 13.909 29.013 13.909 12.629 0 22.272-4.907 28.885-14.72 5.888-8.704 8.576-19.499 8.107-32.427h-64.683zM1238.4 129.024h54.485c-0.213 8.064-2.773 15.061-7.637 21.077-4.864 5.931-11.264 8.917-19.115 8.917s-14.208-2.901-19.115-8.747c-4.949-5.931-7.808-12.971-8.619-21.248z" />
<glyph unicode="&#xe953;" horiz-adv-x="3071" d="M1394.432 87.979c0-19.883-6.656-32.384-19.968-37.461-4.736-1.877-9.813-2.773-15.36-2.773-10.624 0-19.243 2.176-25.941 6.528s-10.325 10.667-10.88 18.944h10.24c1.451-8.619 6.827-13.952 16.213-16 2.688-0.597 5.504-0.896 8.363-0.896 9.557 0 16.427 2.688 20.693 8.107 4.224 5.419 6.357 13.269 6.357 23.509v11.392h-0.299c-2.389-5.205-5.888-9.344-10.496-12.501-4.608-3.2-10.155-4.779-16.64-4.779-12.459-0.043-21.845 3.968-28.16 11.989-6.357 8.021-9.515 18.219-9.472 30.635s3.456 22.699 10.197 30.848c6.741 8.107 16 12.117 27.819 11.989 9.131 0 16.64-3.456 22.485-10.411 1.792-2.048 3.2-4.224 4.224-6.528h0.299v14.549h10.24v-77.141zM1336.107 101.035c5.077-6.912 11.947-10.368 20.523-10.368s15.317 3.243 20.181 9.771c4.864 6.528 7.296 14.421 7.296 23.723s-2.261 17.408-6.741 24.363c-4.523 6.955-11.307 10.411-20.352 10.411s-16.085-3.627-21.077-10.923c-4.352-6.144-6.528-14.080-6.528-23.723s2.261-17.365 6.699-23.253z" />
<glyph unicode="&#xe954;" horiz-adv-x="3071" d="M1426.389 120.405c0-13.909 5.035-23.893 15.147-29.909 3.499-2.048 7.68-3.072 12.587-3.072 7.467 0 13.355 1.963 17.579 5.845 4.224 3.925 7.211 9.088 8.832 15.531h10.24c-2.176-9.557-6.187-16.896-12.032-22.101s-14.080-7.808-24.661-7.851c-12.757 0-22.315 4.224-28.587 12.715-6.315 8.491-9.429 18.859-9.387 31.189s3.029 22.656 8.96 30.933c6.656 9.259 16.341 13.909 29.013 13.909 12.629 0 22.272-4.907 28.885-14.72 5.888-8.704 8.576-19.499 8.107-32.427h-64.683zM1426.389 129.024h54.485c-0.213 8.064-2.773 15.061-7.637 21.077-4.864 5.931-11.264 8.917-19.115 8.917s-14.208-2.901-19.115-8.747c-4.992-5.931-7.851-12.971-8.619-21.248z" />
<glyph unicode="&#xe955;" horiz-adv-x="3071" d="M1511.211 165.205h10.24v-14.549h0.341c1.963 5.077 5.419 9.173 10.411 12.245s10.453 4.651 16.384 4.693c16.469 0 26.283-6.272 29.44-18.859 0.939-4.011 1.451-8.533 1.451-13.525v-54.059h-10.24v52.395c0 16.981-7.083 25.429-21.291 25.429-7.893 0-14.251-2.688-18.987-8.107-4.821-5.419-7.296-12.331-7.381-20.736v-48.981h-10.24v84.053z" />
<glyph unicode="&#xe956;" horiz-adv-x="3071" d="M1640.747 78.848c-12.416 0-22.144 4.267-29.269 12.8-7.040 8.533-10.539 19.072-10.496 31.659s3.627 23.083 10.667 31.573c7.040 8.491 16.768 12.715 29.141 12.715 9.003 0 16.64-2.389 22.869-7.168s9.941-11.989 11.136-21.632h-10.24c-3.072 13.483-10.965 20.181-23.723 20.181-9.216 0-16.427-3.584-21.675-10.795s-7.851-15.531-7.765-25.003c0.043-9.515 2.688-17.877 7.851-25.003 5.205-7.168 12.373-10.709 21.589-10.709 6.357 0 11.861 2.261 16.512 6.827 4.651 4.523 7.296 10.24 7.936 17.024h10.24c-1.451-10.24-5.205-18.219-11.307-23.936-6.101-5.76-13.909-8.619-23.467-8.533z" />
<glyph unicode="&#xe957;" horiz-adv-x="3071" d="M1702.229 120.405c0-13.909 5.035-23.893 15.147-29.909 3.499-2.048 7.68-3.072 12.587-3.072 7.467 0 13.355 1.963 17.579 5.845 4.267 3.925 7.211 9.088 8.832 15.531h10.24c-2.176-9.557-6.187-16.896-12.032-22.101s-14.080-7.808-24.661-7.851c-12.757 0-22.315 4.224-28.587 12.715-6.315 8.491-9.429 18.859-9.387 31.189s3.029 22.656 8.96 30.933c6.656 9.259 16.341 13.909 29.013 13.909 12.629 0 22.272-4.907 28.885-14.72 5.888-8.704 8.576-19.499 8.107-32.427h-64.683zM1702.229 129.024h54.485c-0.213 8.064-2.773 15.061-7.637 21.077-4.864 5.931-11.264 8.917-19.115 8.917s-14.208-2.901-19.115-8.747c-4.949-5.931-7.851-12.971-8.619-21.248z" />
<glyph unicode="&#xe958;" horiz-adv-x="3071" d="M1838.976 165.205h9.472v-15.957h0.341c2.389 5.888 6.272 10.411 11.605 13.611 5.291 3.2 11.307 4.779 17.963 4.779 12.416 0 21.888-4.224 28.373-12.629 6.528-8.491 9.771-19.072 9.771-31.787s-3.243-23.253-9.685-31.659c-6.485-8.448-15.829-12.672-28.075-12.672-10.197 0-18.389 3.413-24.576 10.283-2.005 2.304-3.541 4.992-4.608 8.064h-0.299v-46.976h-10.24v114.944zM1906.261 123.179c0 9.813-2.347 18.219-6.997 25.259s-11.52 10.581-20.523 10.581c-10.624 0-18.389-3.584-23.296-10.709-4.139-5.888-6.187-14.251-6.187-25.088 0-15.787 5.248-26.624 15.744-32.555 3.755-2.133 8.235-3.157 13.355-3.157 5.077 0 9.387 1.067 12.885 3.157 6.827 4.181 11.307 10.752 13.44 19.712 1.024 4.139 1.579 8.448 1.579 12.8z" />
<glyph unicode="&#xe959;" horiz-adv-x="3071" d="M1939.072 197.419h10.24v-116.267h-10.24v116.267z" />
<glyph unicode="&#xe95a;" horiz-adv-x="3071" d="M1974.571 139.435c1.237 18.773 12.331 28.16 33.408 28.16 21.035 0 31.573-9.003 31.573-26.965v-44.757c0-4.139 2.005-6.187 6.059-6.144 1.237 0 2.261 0.213 3.2 0.64v-8.576c-2.432-0.427-4.779-0.64-7.083-0.64-6.485 0-10.197 2.901-11.221 8.704-0.256 1.792-0.384 3.755-0.384 5.845h-0.299c-4.139-6.016-8.363-10.325-12.629-12.928-4.224-2.603-10.24-3.925-17.963-3.968-12.971 0-21.675 4.48-25.984 13.397-1.451 3.072-2.133 7.125-2.133 12.245s1.28 9.301 3.883 12.587c2.603 3.285 6.059 5.803 10.325 7.595 4.309 1.749 9.131 2.944 14.464 3.627s9.941 1.237 13.824 1.664 6.656 0.811 8.277 1.152c4.864 1.024 7.339 4.352 7.381 10.027 0.085 9.813-4.352 15.531-13.355 17.195-2.645 0.469-5.504 0.725-8.576 0.725-6.485 0-11.776-1.536-15.915-4.608s-6.315-8.064-6.528-14.933h-10.325zM2029.269 127.061h-0.341c-0.853-1.109-3.669-1.92-8.448-2.432-4.608-0.853-9.216-1.621-13.824-2.219-16.939-2.261-25.429-7.808-25.429-16.64 0.043-5.845 1.877-10.368 5.504-13.611 3.669-3.157 7.723-4.736 12.245-4.736 8.96 0 16.256 2.389 21.888 7.211s8.448 11.179 8.448 19.115v13.312z" />
<glyph unicode="&#xe95b;" horiz-adv-x="3071" d="M2072.533 156.587h-14.72v8.576h14.72v25.301h10.24v-25.301h17.109v-8.576h-17.109v-56.704c0-3.413 0.469-6.059 1.365-7.979s2.987-2.901 6.272-3.029 6.443 0 9.472 0.299v-8.576l-9.131-0.299c-6.827 0-11.605 1.323-14.293 3.968s-4.011 7.552-3.883 14.72v57.6z" />
<glyph unicode="&#xe95c;" horiz-adv-x="3071" d="M2146.859 188.8c-1.92 0-3.627-0.427-5.163-1.28-2.816-1.579-4.309-4.48-4.523-8.661-0.128-1.963-0.171-4.096-0.171-6.357v-7.296h16.555v-8.576h-16.555v-75.477h-10.24v75.435h-14.379v8.576h14.379v7.637c0 8.149 1.28 14.080 3.883 17.749 3.285 4.651 8.789 6.955 16.469 6.827 2.56 0 5.419-0.213 8.576-0.64v-8.832c-3.968 0.597-6.912 0.896-8.832 0.896z" />
<glyph unicode="&#xe95d;" horiz-adv-x="3071" d="M2234.795 154.453c6.827-8.277 10.24-18.688 10.24-31.317 0-12.587-3.499-23.125-10.496-31.573-6.955-8.491-16.683-12.757-29.184-12.757-12.459 0-22.229 4.267-29.355 12.8-7.040 8.533-10.539 19.072-10.496 31.659s3.627 23.083 10.667 31.573c7.040 8.491 16.683 12.715 28.928 12.715 12.331 0.043 22.229-4.352 29.696-13.099zM2205.397 87.424c4.864 0 9.131 1.024 12.8 3.115 7.253 4.011 12.16 10.581 14.72 19.627 1.28 4.224 1.92 8.576 1.92 13.013 0 9.387-2.603 17.707-7.808 24.96s-12.416 10.88-21.717 10.88c-4.821 0-9.088-1.024-12.8-3.115-7.168-4.011-12.075-10.453-14.72-19.285-2.603-8.832-2.603-17.707 0-26.624 2.603-8.96 7.509-15.445 14.72-19.456 3.712-2.091 7.979-3.115 12.885-3.115z" />
<glyph unicode="&#xe95e;" horiz-adv-x="3071" d="M2266.837 165.205h9.472v-19.029h0.341c2.603 6.613 6.613 11.733 12.075 15.317s11.989 5.205 19.627 4.821v-9.472c-9.131 0.384-16.64-2.347-22.485-8.149s-8.747-13.227-8.747-22.315v-45.227h-10.24v84.053z" />
<glyph unicode="&#xe95f;" horiz-adv-x="3071" d="M2377.515 138.155c0 13.696-5.845 20.608-17.579 20.821-8.363 0-14.677-2.859-18.859-8.491-4.139-5.675-6.187-13.141-6.187-22.443v-46.933h-10.24v84.053h9.472v-14.165h0.469c5.717 11.008 14.891 16.555 27.52 16.555 5.504 0 10.496-1.365 14.976-4.053s7.509-6.827 9.045-12.331c2.475 5.504 6.187 9.6 11.051 12.331 4.864 2.688 10.112 4.053 15.701 4.053 18.56 0 27.861-9.813 27.861-29.44v-57.003h-10.24v56.533c0 6.955-1.451 12.203-4.395 15.829s-8.277 5.419-16.085 5.504c-7.808 0-13.653-3.115-17.536-9.301-3.115-5.035-4.693-12.032-4.693-20.992v-47.573h-10.24v57.045z" />
<glyph unicode="&#xe960;" horiz-adv-x="2836" d="M2592.597 434.901c4.011-27.904 9.984-28.757 9.984-28.757h0.469l0.597-1.024c1.109-0.768 6.869-3.157 29.653 5.931 5.675 2.261 21.376 10.411 42.795 21.973-22.187 28.672-51.925 51.029-86.357 64.171 0.853-31.659 1.792-55.125 2.859-62.293z" />
<glyph unicode="&#xe961;" horiz-adv-x="2836" d="M2639.744 353.877c7.296-5.76 38.272-24.96 77.781-48.811 0.043 2.133 0.299 4.224 0.299 6.357 0 42.965-13.739 82.645-36.864 115.157-21.163-13.056-36.352-22.827-41.216-26.624-19.456-15.403-20.096-21.547-19.968-22.784l0.128-0.256-0.171-0.341c-0.128-1.451 0.811-7.637 20.011-22.699z" />
<glyph unicode="&#xe962;" horiz-adv-x="2836" d="M2539.819 411.051c18.944-7.552 26.069-7.168 28.587-6.4l0.853 1.493h0.469c0 0 5.931 0.853 10.027 28.757 1.067 7.381 2.005 31.957 2.859 64.939-20.053 6.784-41.472 10.624-63.829 10.624-39.125 0-75.52-11.435-106.283-30.933 60.501-33.664 115.541-63.787 127.317-68.48z" />
<glyph unicode="&#xe963;" horiz-adv-x="2836" d="M2633.301 342.784c-22.912 9.088-28.629 6.613-29.696 5.888l-0.555-0.981h-0.469c0 0-5.973-0.853-9.984-28.757-2.304-15.573-4.053-107.733-5.205-194.133 72.192 26.581 124.629 93.653 129.749 173.781-41.643 22.827-74.965 40.661-83.84 44.203z" />
<glyph unicode="&#xe964;" horiz-adv-x="2836" d="M2579.755 318.891c-4.096 27.904-10.027 28.757-10.027 28.757h-0.469l-0.853 1.493c-2.603 0.768-9.771 1.067-28.501-6.357-16.768-6.699-120.619-64.299-203.648-110.763 30.677-70.357 100.821-119.637 182.485-119.637 23.211 0 45.44 4.181 66.133 11.477-1.109 86.656-2.859 179.413-5.12 195.029z" />
<glyph unicode="&#xe965;" horiz-adv-x="2836" d="M2553.344 375.253l-0.939 1.621 0.811 1.451c-0.555 2.56-3.712 8.917-19.797 21.632-10.112 7.979-64.64 41.216-124.672 77.269-53.632-35.669-89.003-96.597-89.003-165.803 0-27.733 5.675-54.101 15.915-78.080 81.835 48.427 183.765 109.355 197.888 120.491 15.701 12.416 19.115 18.773 19.797 21.419z" />
<glyph unicode="&#xe966;" horiz-adv-x="2836" d="M127.019 712.064v0c-3.328 38.869 51.797 116.523 157.568 116.523 17.237 0 58.197 0 75.179 0v-77.269c-18.603 0.085-56.875-0.299-71.339 0-46.848 0.981-79.275-28.075-82.987-71.253l-0.043-168.235h-78.379z" />
<glyph unicode="&#xe967;" horiz-adv-x="2836" d="M528 829.696c71.339 0 132.309-29.227 149.333-121.472 2.475-13.355 5.632-57.045 3.669-64.427l-230.315 0.256c3.157-41.088 34.219-73.131 83.456-72.235 36.779 0.683 62.165 20.821 78.677 41.003l54.229-41.131c-41.643-51.456-93.781-61.141-134.229-61.141-88.789 0-155.989 58.581-157.995 158.379-2.048 99.499 78.677 160.768 153.173 160.768zM605.227 700.672c-2.475 53.163-38.272 72.917-78.677 72.448-37.845-0.469-68.992-27.008-76.672-72.448h155.349z" />
<glyph unicode="&#xe968;" horiz-adv-x="2836" d="M749.824 605.312c12.459-13.867 37.376-38.016 70.229-37.248 31.019 0.725 51.2 12.416 52.267 33.408 1.237 24.747-24.96 34.304-72.576 43.691-42.624 8.405-91.733 24.96-90.88 89.472 0.725 56.405 51.456 95.104 123.264 95.104 44.373 0 87.424-18.475 106.581-46.336l-50.517-45.44c-15.445 21.248-34.645 31.445-60.117 30.933-28.757-0.597-43.861-15.061-43.349-33.877 0.512-21.163 28.757-26.581 68.053-35.243 66.475-14.72 95.275-38.016 95.275-94.763 0-54.357-51.584-94.421-132.565-94.464-42.923 0-85.461 13.909-116.181 47.36l50.517 47.403z" />
<glyph unicode="&#xe969;" horiz-adv-x="2836" d="M985.984 821.888h71.893v-48.64h1.28c14.72 31.232 44.971 56.448 88.917 56.448 68.565 0 112.512-35.2 114.389-120.576v-190.336h-75.776l0.256 168.875c-5.717 64.171-29.909 73.728-58.411 73.6-32.64-0.171-65.579-21.163-66.859-74.581v-167.851h-75.691v303.061z" />
<glyph unicode="&#xe96a;" horiz-adv-x="2836" d="M1471.659 829.141c86.784 0 165.248-58.581 165.248-159.659 0-100.48-78.336-158.379-165.163-158.379-86.101 0-164.437 57.941-164.437 158.379 0.043 101.12 78.251 159.659 164.352 159.659zM1472.085 579.115c50.816 0 89.301 40.021 89.045 90.923-0.256 53.888-37.419 90.539-90.027 90.923-47.915 0.341-89.301-38.315-88.021-92.245 1.195-51.968 38.187-89.6 89.003-89.6z" />
<glyph unicode="&#xe96b;" horiz-adv-x="2836" d="M1647.061 821.461h76.373l50.944-157.184c8.491-29.568 18.304-60.416 26.752-91.221h2.603c9.173 30.805 18.304 61.653 27.435 91.221l50.944 157.184h72.491l-109.056-302.635h-86.869l-111.616 302.635z" />
<glyph unicode="&#xe96c;" horiz-adv-x="2836" d="M2150.187 712.363c-0.64 32.085-15.019 59.179-58.112 59.179-32 0-61.995-13.568-90.069-29.568l-27.435 47.445c35.243 20.949 80.299 39.424 131.243 39.424 80.299 0 119.467-46.251 119.467-130.688v-179.328h-61.355l-5.845 33.28h-2.005c-28.715-22.827-61.355-40.661-99.2-40.661-56.149 0-95.36 35.755-95.36 88.747-0.043 64.683 57.387 98.603 188.672 112.171zM2080.299 566.912c26.155 0 46.379 12.331 69.888 33.28v67.797c-86.827-10.496-115.541-32.043-115.541-62.251 0-27.136 18.901-38.827 45.653-38.827z" />
<glyph unicode="&#xe96d;" horiz-adv-x="2836" d="M244.779 203.093c8.747-10.581 13.141-23.979 13.141-40.107s-4.48-29.653-13.44-40.491c-8.917-10.88-21.376-16.341-37.419-16.341-15.957 0-28.501 5.461-37.589 16.427-9.045 10.923-13.525 24.448-13.44 40.576 0.085 16.085 4.608 29.611 13.653 40.448 9.045 10.88 21.419 16.299 37.12 16.299 15.744 0 28.416-5.632 37.973-16.811zM207.061 117.163c6.272 0 11.733 1.323 16.427 3.968 9.301 5.163 15.573 13.525 18.859 25.131 1.621 5.419 2.432 11.008 2.432 16.683 0 11.989-3.328 22.656-9.984 31.957s-15.915 13.952-27.819 13.952c-6.187 0-11.648-1.323-16.427-3.968-9.173-5.163-15.445-13.397-18.859-24.747-3.328-11.349-3.328-22.699 0-34.091 3.328-11.477 9.6-19.797 18.859-24.96 4.779-2.603 10.283-3.925 16.512-3.925z" />
<glyph unicode="&#xe96e;" horiz-adv-x="2836" d="M285.653 216.832h13.141v-18.645h0.427c2.517 6.528 6.955 11.733 13.355 15.701s13.397 5.931 20.992 6.016c21.12 0 33.707-8.064 37.717-24.149 1.237-5.163 1.835-10.923 1.835-17.323v-69.291h-13.141v67.157c0 21.76-9.088 32.597-27.307 32.597-10.112 0-18.261-3.456-24.363-10.411-6.187-6.912-9.344-15.787-9.472-26.581v-62.763h-13.141v107.691z" />
<glyph unicode="&#xe96f;" horiz-adv-x="2836" d="M406.4 258.133h13.141v-148.992h-13.141v148.992z" />
<glyph unicode="&#xe970;" horiz-adv-x="2836" d="M453.291 258.133h13.141v-21.077h-13.141v21.077zM453.291 216.832h13.141v-107.733h-13.141v107.733z" />
<glyph unicode="&#xe971;" horiz-adv-x="2836" d="M499.755 216.832h13.141v-18.645h0.427c2.517 6.528 6.955 11.733 13.355 15.701s13.397 5.931 20.992 6.016c21.12 0 33.707-8.064 37.717-24.149 1.237-5.163 1.835-10.923 1.835-17.323v-69.291h-13.141v67.157c0 21.76-9.088 32.597-27.307 32.597-10.112 0-18.261-3.456-24.363-10.411-6.187-6.912-9.344-15.787-9.472-26.581v-62.763h-13.141v107.691z" />
<glyph unicode="&#xe972;" horiz-adv-x="2836" d="M627.968 159.445c0-17.835 6.443-30.592 19.371-38.357 4.48-2.645 9.856-3.968 16.128-3.968 9.6 0 17.109 2.517 22.571 7.509s9.216 11.648 11.349 19.883h13.141c-2.773-12.245-7.936-21.675-15.403-28.331s-18.005-10.027-31.616-10.112c-16.341 0-28.587 5.419-36.651 16.299s-12.075 24.192-12.032 39.936c0.085 15.829 3.883 29.056 11.52 39.637 8.533 11.904 20.949 17.835 37.163 17.835 16.171 0 28.544-6.272 37.035-18.859 7.552-11.136 11.008-25.003 10.411-41.6h-82.987zM627.968 170.453h69.803c-0.256 10.325-3.541 19.328-9.813 27.008-6.272 7.595-14.421 11.435-24.491 11.435s-18.219-3.755-24.491-11.221c-6.315-7.552-9.984-16.597-11.008-27.221z" />
<glyph unicode="&#xe973;" horiz-adv-x="2836" d="M803.243 258.133h13.141v-61.739h0.427c2.603 7.253 7.296 13.013 14.165 17.195 6.869 4.224 14.507 6.315 22.912 6.315 15.744 0 27.819-5.419 36.181-16.213 8.363-10.88 12.544-24.448 12.544-40.747s-4.139-29.824-12.416-40.576c-8.277-10.837-20.267-16.256-35.968-16.256-8.747-0.085-16.597 1.963-23.552 6.059-6.912 4.096-11.904 9.941-14.891 17.493h-0.427v-20.565h-12.117v149.035zM889.472 162.987c0 12.544-2.987 23.339-8.96 32.384-5.973 9.003-15.061 13.525-27.221 13.525s-21.632-4.864-28.416-14.549c-5.632-8.064-8.448-18.517-8.448-31.36 0-20.224 6.741-34.133 20.181-41.728 4.821-2.731 10.539-4.053 17.109-4.053 6.528 0 12.032 1.365 16.512 4.053 8.747 5.376 14.507 13.781 17.237 25.259 1.323 5.376 2.005 10.88 2.005 16.469z" />
<glyph unicode="&#xe974;" horiz-adv-x="2836" d="M1014.613 203.093c8.747-10.581 13.141-23.979 13.141-40.107s-4.48-29.653-13.44-40.491c-8.917-10.88-21.376-16.341-37.419-16.341-15.957 0-28.501 5.461-37.589 16.427-9.045 10.923-13.525 24.448-13.44 40.576 0.085 16.085 4.608 29.611 13.653 40.448 9.045 10.88 21.419 16.299 37.12 16.299 15.744 0 28.416-5.632 37.973-16.811zM976.896 117.163c6.272 0 11.733 1.323 16.427 3.968 9.301 5.163 15.573 13.525 18.859 25.131 1.621 5.419 2.432 11.008 2.432 16.683 0 11.989-3.328 22.656-9.984 31.957s-15.915 13.952-27.819 13.952c-6.187 0-11.648-1.323-16.427-3.968-9.173-5.163-15.445-13.397-18.859-24.747-3.328-11.349-3.328-22.699 0-34.091 3.328-11.477 9.6-19.797 18.859-24.96 4.779-2.603 10.283-3.925 16.512-3.925z" />
<glyph unicode="&#xe975;" horiz-adv-x="2836" d="M1138.944 203.093c8.747-10.581 13.141-23.979 13.141-40.107s-4.48-29.653-13.44-40.491c-8.917-10.88-21.376-16.341-37.419-16.341-15.957 0-28.501 5.461-37.589 16.427-9.045 10.923-13.525 24.448-13.44 40.576 0.085 16.085 4.608 29.611 13.653 40.448 9.045 10.88 21.419 16.299 37.12 16.299 15.744 0 28.416-5.632 37.973-16.811zM1101.227 117.163c6.272 0 11.733 1.323 16.427 3.968 9.301 5.163 15.573 13.525 18.859 25.131 1.621 5.419 2.432 11.008 2.432 16.683 0 11.989-3.328 22.656-9.984 31.957s-15.915 13.952-27.819 13.952c-6.187 0-11.648-1.323-16.427-3.968-9.173-5.163-15.445-13.397-18.859-24.747-3.328-11.349-3.328-22.699 0-34.091 3.328-11.477 9.6-19.797 18.859-24.96 4.779-2.603 10.283-3.925 16.512-3.925z" />
<glyph unicode="&#xe976;" horiz-adv-x="2836" d="M1180.032 258.133h13.141v-93.483l59.733 52.181h17.536l-45.952-39.851 49.024-67.883h-16.427l-42.624 58.624-21.291-17.749v-40.875h-13.141v149.035z" />
<glyph unicode="&#xe977;" horiz-adv-x="2836" d="M1292.928 258.133h13.141v-21.077h-13.141v21.077zM1292.928 216.832h13.141v-107.733h-13.141v107.733z" />
<glyph unicode="&#xe978;" horiz-adv-x="2836" d="M1339.392 216.832h13.141v-18.645h0.427c2.517 6.528 6.955 11.733 13.355 15.701s13.397 5.931 20.992 6.016c21.12 0 33.707-8.064 37.717-24.149 1.237-5.163 1.835-10.923 1.835-17.323v-69.291h-13.141v67.157c0 21.76-9.088 32.597-27.307 32.597-10.112 0-18.261-3.456-24.363-10.411-6.187-6.912-9.344-15.787-9.472-26.581v-62.763h-13.141v107.691z" />
<glyph unicode="&#xe979;" horiz-adv-x="2836" d="M1550.976 117.888c0-25.472-8.533-41.472-25.557-48-6.059-2.389-12.587-3.584-19.669-3.584-13.611 0-24.661 2.773-33.237 8.363s-13.227 13.653-13.952 24.235h13.141c1.835-11.051 8.747-17.877 20.779-20.48 3.456-0.768 7.040-1.109 10.709-1.109 12.245 0 21.077 3.456 26.496 10.411s8.149 16.981 8.149 30.123v14.592h-0.427c-3.072-6.656-7.552-11.989-13.44-16-5.888-4.096-13.013-6.101-21.291-6.101-15.957-0.085-27.989 5.077-36.096 15.403-8.149 10.24-12.203 23.339-12.117 39.253s4.395 29.099 13.056 39.552c8.619 10.411 20.523 15.531 35.669 15.403 11.691 0 21.291-4.437 28.843-13.355 2.304-2.645 4.096-5.419 5.376-8.363h0.427v18.645h13.141v-98.987zM1476.267 134.613c6.528-8.832 15.275-13.269 26.283-13.269s19.627 4.181 25.899 12.544c6.272 8.363 9.387 18.517 9.387 30.421s-2.901 22.315-8.661 31.232c-5.76 8.917-14.464 13.355-26.112 13.355s-20.608-4.651-27.008-13.995c-5.589-7.893-8.363-18.048-8.363-30.421s2.859-22.315 8.576-29.867z" />
<glyph unicode="&#xe97a;" horiz-adv-x="2836" d="M1650.645 216.832h12.117v-20.48h0.427c3.072 7.552 8.021 13.355 14.891 17.408 6.784 4.096 14.464 6.101 23.040 6.101 15.915 0 28.032-5.419 36.395-16.213 8.363-10.88 12.544-24.448 12.544-40.747s-4.139-29.824-12.416-40.576c-8.277-10.837-20.267-16.256-35.968-16.256-13.056 0-23.552 4.395-31.488 13.184-2.603 2.944-4.565 6.357-5.888 10.325h-0.384v-60.203h-13.141v147.456zM1736.875 162.987c0 12.544-2.987 23.339-8.96 32.384-5.973 9.003-14.72 13.525-26.283 13.525-13.611 0-23.552-4.565-29.867-13.739-5.291-7.552-7.936-18.261-7.936-32.171 0-20.224 6.741-34.133 20.181-41.728 4.821-2.731 10.539-4.053 17.109-4.053 6.528 0 12.032 1.365 16.512 4.053 8.747 5.376 14.507 13.781 17.237 25.259 1.323 5.376 2.005 10.88 2.005 16.469z" />
<glyph unicode="&#xe97b;" horiz-adv-x="2836" d="M1778.944 258.133h13.141v-148.992h-13.141v148.992z" />
<glyph unicode="&#xe97c;" horiz-adv-x="2836" d="M1825.408 146.901v69.931h13.141v-70.059c0.256-9.728 2.517-17.067 6.741-22.101s11.563-7.509 22.101-7.509c10.539 0 18.731 4.437 24.576 13.312 5.035 7.595 7.595 17.536 7.723 29.824v56.491h13.141v-107.733h-12.117v19.456h-0.427c-3.456-7.211-8.491-12.757-15.104-16.555-6.571-3.84-13.909-5.76-22.016-5.845-25.131 0.043-37.76 13.611-37.76 40.789z" />
<glyph unicode="&#xe97d;" horiz-adv-x="2836" d="M2036.992 117.888c0-25.472-8.533-41.472-25.557-48-6.059-2.389-12.587-3.584-19.669-3.584-13.611 0-24.661 2.773-33.237 8.363s-13.227 13.653-13.952 24.235h13.141c1.835-11.051 8.747-17.877 20.779-20.48 3.456-0.768 7.040-1.109 10.709-1.109 12.245 0 21.077 3.456 26.496 10.411s8.149 16.981 8.149 30.123v14.592h-0.427c-3.072-6.656-7.552-11.989-13.44-16-5.888-4.096-13.013-6.101-21.291-6.101-15.957-0.085-27.989 5.077-36.096 15.403-8.149 10.24-12.203 23.339-12.117 39.253 0.043 15.915 4.395 29.099 13.056 39.552 8.619 10.411 20.523 15.531 35.669 15.403 11.691 0 21.291-4.437 28.843-13.355 2.304-2.645 4.096-5.419 5.376-8.363h0.427v18.645h13.141v-98.987zM1962.283 134.613c6.528-8.832 15.275-13.269 26.283-13.269s19.627 4.181 25.899 12.544c6.272 8.363 9.387 18.517 9.387 30.421s-2.901 22.315-8.661 31.232c-5.76 8.917-14.464 13.355-26.112 13.355-11.605 0-20.608-4.651-27.008-13.995-5.589-7.893-8.363-18.048-8.363-30.421s2.859-22.315 8.576-29.867z" />
<glyph unicode="&#xe97e;" horiz-adv-x="2836" d="M2070.528 258.133h13.141v-21.077h-13.141v21.077zM2070.528 216.832h13.141v-107.733h-13.141v107.733z" />
<glyph unicode="&#xe97f;" horiz-adv-x="2836" d="M2116.992 216.832h13.141v-18.645h0.427c2.517 6.528 6.955 11.733 13.355 15.701s13.397 5.931 20.992 6.016c21.12 0 33.707-8.064 37.717-24.149 1.237-5.163 1.835-10.923 1.835-17.323v-69.291h-13.141v67.157c0 21.76-9.088 32.597-27.307 32.597-10.112 0-18.261-3.456-24.363-10.411-6.187-6.912-9.344-15.787-9.472-26.581v-62.763h-13.141v107.691z" />
<glyph unicode="&#xe980;" glyph-name="resinsite-icon" d="M714.014 548.147l2.91 3.149 1.984-2.112 232.124 232.081 53.359-53.517v155.162h-148.971l53.419-56.512-188.642-190.588-173.687 173.013v133.44h-33.92v-491.797h491.802v33.916h-457.882v231.744zM478.673 416.55v524.429c-254.989-16.294-459.063-229.504-459.063-490.47 0-271.59 220.8-493.026 492.39-493.026 260.966 0 474.782 204.075 491.102 459.063h-524.429z" />
<glyph unicode="&#xe981;" glyph-name="developer" d="M21.619 415.019v60.224l348.075 146.97v-64.166l-276.019-113.271 276.019-114.355v-64.162l-348.075 148.762zM1002.381 415.019l-348.062-148.762v64.162l275.657 114.355-275.657 113.271v64.166l348.062-146.97v-60.224z" />
<glyph unicode="&#xe982;" glyph-name="developer-circle" d="M511.987 940.318c-271.893 0-492.309-220.425-492.309-492.322 0-271.893 220.416-492.314 492.314-492.314s492.335 220.416 492.335 492.314c-0.004 271.898-220.437 492.322-492.339 492.322zM426.295 507.183l-166.238-68.22 166.238-68.873v-38.643l-209.634 89.596v36.271l209.63 88.516v-38.647zM481.997 277.261h-31.305l91.755 327.287h31.091l-91.541-327.287zM807.339 421.043l-209.626-89.591v38.643l166.016 68.873-166.016 68.22v38.647l209.626-88.516v-36.275z" />
<glyph unicode="&#xe983;" glyph-name="payment-gateway" d="M986.364 763.217v61.146c0 9.233-7.552 16.785-16.785 16.785h-701.905c-9.233 0-16.785-7.552-16.785-16.785v-61.146h735.475zM250.889 643.836v-22.972c9.805 0.256 19.614-0.175 29.414-1.306 31.177-3.601 59.699-14.323 85.222-32.631 27.951-20.049 50.287-45.052 65.621-76.015 8.832-17.835 14.583-36.668 16.819-56.435 1.135-10.048 1.741-20.198 1.843-30.31 0.085-8.964 0.124-17.933 0.132-26.901h519.637c9.233 0 16.785 7.552 16.785 16.785v229.786h-735.475zM902.148 491.959h-285.534c-6.281 0-11.418 5.137-11.418 11.418s5.137 11.418 11.418 11.418h285.534c6.281 0 11.418-5.137 11.418-11.418 0-6.276-5.137-11.418-11.418-11.418zM902.148 538.739h-285.534c-6.281 0-11.418 5.137-11.418 11.418s5.137 11.418 11.418 11.418h285.534c6.281 0 11.418-5.137 11.418-11.418s-5.137-11.418-11.418-11.418zM902.148 585.515h-285.534c-6.281 0-11.418 5.137-11.418 11.418s5.137 11.418 11.418 11.418h285.534c6.281 0 11.418-5.137 11.418-11.418 0-6.276-5.137-11.418-11.418-11.418zM267.674 397.261h81.69c0.393 19.52-0.213 36.693-1.574 43.742-6.63 34.33-20.087 55.765-49.911 73.007-13.914 8.043-29.214 11.797-45.222 12.706-0.589 0.034-1.178 0.064-1.766 0.090v-112.759c0-9.229 7.552-16.785 16.785-16.785zM76.352 352.96c0 1.105 0 1.89 0 2.675 0.009 26.197-0.205 52.399 0.077 78.596 0.474 44.305 15.637 83.029 45.099 116.117 16.866 18.944 36.361 34.522 59.311 45.555 16.845 8.098 34.577 13.167 53.124 15.467 15.663 1.941 31.334 2.027 46.993 0.218 29.286-3.379 56.077-13.457 80.051-30.652 26.257-18.833 47.236-42.317 61.641-71.403 8.294-16.751 13.696-34.441 15.799-53.009 1.067-9.438 1.638-18.974 1.728-28.471 0.235-24.256 0.077-48.516 0.077-72.772 0-0.713 0-1.425 0-2.321 4.233 0 8.277-0.009 12.326 0.004 5.764 0.017 11.413-0.742 16.614-3.302 14.387-7.083 22.306-18.539 23.014-34.726 0.026-0.546 0.030-1.092 0.030-1.638 0-77.504-0.004-155.008 0.009-232.512 0.004-14.716-6.293-26.001-18.505-34.018-5.598-3.678-11.874-5.38-18.543-5.679-0.785-0.034-1.574-0.026-2.364-0.026-129.719 0-259.439 0.047-389.154-0.055-19.456-0.017-32.674 13.069-36.86 25.22-1.361 3.951-1.677 8.26-2.436 12.412-0.107 0.589-0.026 1.212-0.026 1.818 0 77.687 0 155.371-0.004 233.058 0 15.219 6.827 26.573 19.635 34.441 5.487 3.371 11.61 4.809 18.018 4.962 4.122 0.098 8.247 0.034 12.369 0.043 0.589 0 1.178 0 1.975 0zM362.244 353.045c0 0.747 0 1.289 0 1.826 0 25.289 0.119 50.577-0.085 75.866-0.055 6.758-0.508 13.623-1.788 20.245-6.225 32.247-24.879 55.586-52.894 71.782-13.069 7.556-27.439 11.085-42.479 11.938-16.525 0.939-32.572-1.254-47.795-7.919-38.758-16.964-62.869-53.935-62.912-96.209-0.026-25.169-0.004-50.334-0.004-75.503 0-0.649 0-1.297 0-2.027 69.372 0 138.539 0 207.957 0zM240.192 200.875c-1.519-5.043-3.127-10.377-4.736-15.714-5.44-18.048-10.893-36.096-16.286-54.161-0.427-1.429-0.738-3.017-0.572-4.471 0.576-4.966 4.813-8.649 9.907-8.657 19.81-0.038 39.62 0.055 59.426-0.060 6.135-0.034 11.652 6.306 9.583 12.996-7.083 22.895-13.884 45.879-20.838 68.817-0.388 1.284-0.209 1.882 0.994 2.581 15.313 8.922 22.886 25.293 19.311 43.025-3.52 17.463-22.507 36.582-49.207 29.521-14.438-3.819-23.983-13.572-27.755-28.015-3.767-14.417-0.256-27.383 10.381-38.033 2.871-2.876 6.366-5.124 9.792-7.829z" />
<glyph unicode="&#xe984;" glyph-name="accounting" d="M360.324 741.274c24.218-28.527 48.465-57.024 73.156-86.067 27.648 17.459 57.344 15.441 86.916 12.894 9.003-0.777 14.455 1.668 19.354 9.365 9.609 15.113 20.314 29.534 30.562 44.241 0.964-0.529 1.929-1.054 2.889-1.583-7.223-18.005-14.451-36.006-22.042-54.921 10.833-3.302 20.514-6.75 30.46-8.977 2.812-0.631 7.462 1.37 9.51 3.708 33.493 38.263 67.034 76.493 99.806 115.371 12.258 14.545 14.080 32.606 3.934 48.414-9.254 14.417-22.404 26.33-34.871 40.529-15.548-20.425-28.309-37.193-41.071-53.952 8.717 27.277 19.563 53.099 30.357 78.942 8.256 19.776 8.29 19.925-11.908 29.047-6.711 3.034-13.683 5.705-20.783 7.637-40.427 10.999-81.754 15.586-123.2 10.035-25.574-3.422-51.174-9.958-75.456-18.722-19.106-6.899-18.935-11.068-13.060-30.609 10.278-34.189 20.574-68.369 30.861-102.554-14.579 23.245-27.068 47.262-38.827 71.629-3.913 8.111-8.158 9.382-16.175 5.841-20.762-9.169-38.869-21.513-51.584-40.636-11.554-17.378-10.671-30.003 2.522-45.662 9.545-11.328 19.063-22.682 28.651-33.971zM528.444 252.032c0-30.562-0.017-61.141 0.030-91.721 0.004-2.338 0.448-4.672 0.687-7.002 30.989 2.987 51.157 26.108 49.284 55.795-1.459 23.168-24.439 43.255-50.001 42.927zM870.605 262.609c-32.576 92.617-86.434 172.471-150.737 245.623-40.546 46.127-84.036 89.199-138.688 118.95-8.559 4.659-18.244 7.249-29.786 11.716 6.477-29.385 12.075-54.788 17.673-80.188-3.465 2.556-5.44 5.696-7.031 9.015-10.018 20.915-19.849 41.92-29.999 62.767-1.843 3.789-4.134 8.546-7.514 10.185-12.087 5.85-34.935-1.297-43.166-12.433-13.397-18.129-26.871-36.198-40.316-54.289-0.87 0.602-1.745 1.207-2.615 1.809 10.842 19.529 21.683 39.053 33.796 60.868-24.695-4.484-42.086-17.481-59.285-30.332-52.518-39.245-97.638-86.012-138.859-136.841-44.979-55.458-83.708-114.684-111.104-180.813-23.172-55.94-37.077-113.527-26.628-174.673 12.497-73.165 60.173-123.819 132.412-136.333 45.12-7.817 90.867-13.483 136.563-16.213 113.587-6.793 227.11-5.478 339.733 13.41 27.644 4.638 56.243 9.041 78.831 27.494 33.212 27.127 54.34 62.306 62.724 104.538 10.611 53.466 1.745 105.263-16.004 155.738zM571.507 116.083c-13.188-5.154-27.328-7.872-43.392-12.365 0-12.19 0.269-25.353-0.094-38.498-0.243-8.747-1.754-17.229-13.338-17.685-12.066-0.474-15.177 7.791-15.612 17.314-0.585 12.766-0.145 25.579-0.145 39.339-10.21 2.445-19.831 4.117-29.047 7.066-41.37 13.244-70.946 38.187-79.659 82.82-3.857 19.772 4.949 34.628 22.306 39.006 17.476 4.407 30.059-3.465 37.167-22.613 3.934-10.603 7.697-21.453 13.252-31.219 7.317-12.868 19.008-20.8 35.725-24.333 0 35.439 0.247 69.794-0.452 104.132-0.060 2.871-6.101 6.558-10.057 8.243-14.485 6.178-29.901 10.445-43.806 17.668-34.893 18.125-50.573 51.789-45.047 93.299 5.146 38.647 31.027 68.314 67.499 77.175 10.005 2.432 20.096 4.489 32.073 7.142 0 8.636-0.533 17.916 0.154 27.102 0.67 8.956 4.058 16.909 14.967 16.67 10.709-0.235 14.127-7.552 14.255-17.033 0.119-8.785 0.026-17.574 0.026-27.255 7.906-1.417 14.609-2.573 21.291-3.823 38.677-7.245 62.878-30.69 74.355-67.605 5.397-17.353-2.641-32.653-18.645-38.093-15.778-5.359-30.366 2.342-37.397 19.738-12.139 30.037-17.907 36.096-39.394 40.055 0-30.165-0.222-60.087 0.375-89.993 0.055-2.726 4.932-6.49 8.329-7.799 10.099-3.895 20.672-6.532 30.891-10.146 43.43-15.364 67.951-47.539 68.86-90.022 0.951-43.563-24.329-82.219-65.438-98.287z" />
<glyph unicode="&#xe985;" glyph-name="accounting-circle" d="M540.809 374.251c-5.248 1.856-10.679 3.209-15.863 5.21-1.745 0.674-4.25 2.607-4.275 4.006-0.307 15.36-0.192 30.724-0.192 46.217 11.034-2.031 13.999-5.141 20.228-20.57 3.61-8.934 11.102-12.89 19.204-10.138 8.218 2.79 12.348 10.65 9.574 19.563-5.897 18.957-18.321 30.997-38.187 34.718-3.435 0.644-6.874 1.237-10.935 1.963 0 4.971 0.047 9.485-0.013 13.999-0.068 4.868-1.822 8.627-7.322 8.747-5.602 0.124-7.343-3.964-7.689-8.559-0.354-4.719-0.077-9.485-0.077-13.918-6.148-1.365-11.332-2.419-16.469-3.669-18.731-4.553-32.026-19.785-34.667-39.633-2.837-21.316 5.214-38.605 23.134-47.915 7.142-3.708 15.057-5.901 22.498-9.075 2.031-0.866 5.133-2.761 5.163-4.233 0.358-17.634 0.23-35.277 0.23-53.478-8.585 1.813-14.588 5.888-18.347 12.497-2.85 5.013-4.783 10.59-6.805 16.034-3.652 9.835-10.112 13.879-19.089 11.614-8.913-2.249-13.436-9.877-11.456-20.032 4.476-22.925 19.665-35.733 40.909-42.534 4.732-1.515 9.677-2.372 14.916-3.627 0-7.066-0.226-13.645 0.073-20.203 0.222-4.89 1.822-9.135 8.017-8.892 5.952 0.235 6.724 4.591 6.848 9.084 0.188 6.75 0.047 13.513 0.047 19.772 8.252 2.308 15.509 3.703 22.285 6.349 21.111 8.252 34.095 28.1 33.613 50.479-0.457 21.811-13.052 38.336-35.354 46.225zM504.896 386.671c-11.657 0.563-20.638 9.161-21.257 20.186-0.734 13.052 6.336 21.171 21.257 23.475 0-14.963 0-29.303 0-43.661zM520.815 296.657c-0.124 1.199-0.35 2.398-0.354 3.597-0.026 15.706-0.017 31.407-0.017 47.104 13.129 0.171 24.926-10.146 25.677-22.046 0.964-15.245-9.391-27.119-25.306-28.655zM511.987 941.265c-272.414 0-493.252-220.851-493.252-493.269s220.838-493.257 493.257-493.257c272.422 0 493.278 220.838 493.278 493.257-0.004 272.418-220.86 493.269-493.282 493.269zM418.099 639.509c6.528 9.822 15.829 16.162 26.492 20.868 4.117 1.818 6.298 1.165 8.307-2.999 6.042-12.514 12.45-24.849 19.942-36.787-5.282 17.557-10.573 35.11-15.851 52.668-3.017 10.035-3.106 12.177 6.707 15.718 12.467 4.501 25.617 7.859 38.75 9.617 21.286 2.85 42.509 0.495 63.27-5.154 3.644-0.99 7.223-2.364 10.671-3.921 10.372-4.685 10.355-4.762 6.114-14.916-5.542-13.274-11.115-26.534-15.59-40.542 6.554 8.61 13.107 17.22 21.090 27.708 6.404-7.292 13.158-13.41 17.907-20.813 5.21-8.119 4.275-17.391-2.018-24.862-16.828-19.968-34.057-39.599-51.255-59.251-1.050-1.199-3.439-2.227-4.885-1.903-5.111 1.143-10.082 2.914-15.646 4.612 3.9 9.711 7.607 18.957 11.319 28.203-0.495 0.269-0.99 0.542-1.485 0.811-5.265-7.552-10.761-14.959-15.697-22.72-2.513-3.955-5.316-5.21-9.937-4.809-15.189 1.31-30.438 2.347-44.638-6.622-12.681 14.916-25.135 29.551-37.568 44.203-4.924 5.798-9.813 11.631-14.711 17.446-6.771 8.038-7.223 14.519-1.289 23.445zM704.38 272.811c-4.305-21.687-15.155-39.753-32.213-53.687-11.601-9.476-26.287-11.738-40.482-14.118-57.839-9.702-116.139-10.377-174.473-6.886-23.467 1.404-46.963 4.314-70.131 8.329-37.099 6.426-61.581 32.439-68.002 70.016-5.363 31.403 1.775 60.975 13.675 89.707 14.067 33.958 33.958 64.375 57.058 92.855 21.171 26.103 44.339 50.121 71.313 70.276 8.832 6.601 17.762 13.274 30.447 15.578-6.221-11.204-11.789-21.231-17.357-31.258 0.448-0.311 0.896-0.619 1.344-0.93 6.903 9.293 13.824 18.573 20.706 27.883 4.228 5.717 15.962 9.391 22.17 6.387 1.737-0.841 2.91-3.285 3.857-5.231 5.214-10.705 10.261-21.495 15.407-32.235 0.819-1.707 1.835-3.319 3.614-4.629-2.876 13.047-5.751 26.091-9.075 41.182 5.926-2.295 10.901-3.622 15.296-6.016 28.066-15.279 50.402-37.402 71.223-61.090 33.024-37.568 60.685-78.579 77.414-126.144 9.109-25.929 13.662-52.527 8.209-79.987z" />
<glyph unicode="&#xe986;" glyph-name="brand" d="M20.864 447.71c-0.239 272.922 218.522 493.269 489.737 493.299 270.827 0.030 491.435-221.15 491.43-492.706-0.004-269.542-219.55-492.655-484.8-492.676-278.178-0.021-496.132 216.051-496.367 492.083zM370.543 123.482c0 36.574-0.393 68.74 0.085 100.898 0.828 55.663-0.725 111.565 3.921 166.929 10.987 131.008 128.175 242.449 258.816 247.765 52.749 2.146 105.643 0.73 158.468 1.045 6.848 0.043 13.687 0.764 21.705 1.242-36.608 74.88-87.735 113.553-165.402 120.58-36.983 3.345-74.654-0.486-111.991-1.741-145.421-4.881-273.677-139.051-286.891-265.28-7.023-67.081-3.844-135.262-4.655-202.957-0.137-11.238 1.566-22.899 4.676-33.711 18.116-63.027 57.481-107.136 121.267-134.771zM817.549 499.477c-10.394 0-16.346 0.017-22.298-0.004-57.472-0.166-114.94-0.307-172.412-0.593-3.268-0.017-6.549-1.131-9.788-1.903-57.741-13.734-102.677-71.505-103.445-135.168-0.811-67.081-0.205-134.178-0.222-201.267 0-10.556 0-21.107 0-35.665 108.83 49.067 134.135 137.365 124.659 243.657 87.949 6.054 147.157 48.606 183.505 130.944z" />
<glyph unicode="&#xe987;" glyph-name="property-outline" d="M512 944.171c-274.005 0-496.171-222.165-496.171-496.171s222.123-496.128 496.128-496.128c274.005 0 496.171 222.123 496.171 496.128 0.043 274.005-222.123 496.171-496.128 496.171zM512.085-37.461c-268.8 0-486.699 217.941-486.699 486.741s217.899 486.741 486.699 486.741c268.843 0 486.741-217.941 486.741-486.741s-217.899-486.741-486.741-486.741zM739.968 556.715h-266.795v-165.589h301.653v132.821c0 18.091-15.616 32.768-34.859 32.768zM386.304 534.315c0-33.39-27.068-60.459-60.459-60.459s-60.459 27.068-60.459 60.459c0 33.39 27.068 60.459 60.459 60.459s60.459-27.068 60.459-60.459zM460.715 414.763c0.683 2.304 1.493 6.144 1.493 12.373v98.176c0 18.261-15.744 33.024-35.2 33.024s-35.2-14.805-35.2-33.024v-63.787h-90.197c-18.261 0-33.024-15.744-33.024-35.2s14.805-35.2 33.024-35.2h125.355c15.915 0 29.227 10.027 33.579 23.637h0.171zM832.939 551.936c-19.413 0-35.2-14.805-35.2-33.024v-142.635h-536.576v238.251c0 18.261-15.744 33.024-35.2 33.024-19.413 0-35.2-14.805-35.2-33.024v-432.597h70.357v123.989h536.576v-123.989h70.357v336.981c0.043 18.219-15.701 33.024-35.115 33.024z" />
<glyph unicode="&#xe988;" glyph-name="business-analysis-solid" d="M512.009 938.33c-271.565 0-491.721-220.147-491.721-491.729 0-271.565 220.151-491.712 491.721-491.712 271.565 0 491.729 220.147 491.729 491.712 0 271.582-220.164 491.729-491.729 491.729zM288.777 481.131c4.625 0 9.015-0.943 13.047-2.586l90.185 84.949c-0.034 0.666-0.196 1.284-0.196 1.971 0 19.063 15.458 34.526 34.526 34.526 16.734 0 30.673-11.904 33.839-27.712l77.167-49.617c6.012 5.086 13.683 8.273 22.178 8.273 3.563 0 6.955-0.704 10.189-1.711l93.837 118.997c-1.698 4.075-2.637 8.546-2.637 13.222 0 19.081 15.45 34.526 34.526 34.526 19.063 0 34.526-15.45 34.526-34.526 0-19.063-15.467-34.526-34.526-34.526-1.438 0-2.807 0.256-4.194 0.427l-97.882-124.1c0.427-2.21 0.683-4.489 0.683-6.835 0-19.081-15.467-34.526-34.526-34.526-16.457 0-30.165 11.524-33.634 26.94l-77.798 50.027c-5.952-4.864-13.457-7.91-21.751-7.91-5.286 0-10.244 1.284-14.72 3.409l-88.734-83.58c0.166-1.37 0.418-2.722 0.418-4.16 0-19.063-15.458-34.526-34.526-34.526s-34.526 15.467-34.526 34.526c0 19.072 15.458 34.522 34.53 34.522zM771.618 153.715h-550.98v35.076h24.841v104.832h106.321v-104.832h25.212v228.693h106.325v-228.693h26.219v174.985h106.33v-174.985h25.297v333.201h106.321v-333.201h24.115v-35.076z" />
</font>
</defs>
</svg>
